<?xml version="1.0" standalone="no"?>
<!DOCTYPE svg PUBLIC "-//W3C//DTD SVG 1.1//EN" "http://www.w3.org/Graphics/SVG/1.1/DTD/svg11.dtd" >
<svg>
<metadata>
Created by FontForge 20090622 at Thu Feb 18 13:57:35 2016
 By deploy user
Copyright (c) 2009 by G-Type. Designed and digitized by Nick Cooke. All rights reserved.
</metadata>
<defs>
<font id="ChevinStd-Medium" horiz-adv-x="633" >
  <font-face 
    font-family="Chevin Std Medium"
    font-weight="500"
    font-stretch="normal"
    units-per-em="1000"
    panose-1="2 15 6 0 0 0 0 0 0 0"
    ascent="750"
    descent="-250"
    x-height="505"
    cap-height="738"
    bbox="-88 -251 1000 1030"
    underline-thickness="50"
    underline-position="-50"
    unicode-range="U+0020-U+FB02"
  />
<missing-glyph horiz-adv-x="1000" 
 />
    <glyph glyph-name="fi" unicode="fi" horiz-adv-x="489" 
d="M416 38q0 -18 -13 -30.5t-31 -12.5t-30.5 12.5t-12.5 30.5v429q0 19 12.5 31.5t30.5 12.5t31 -12.5t13 -31.5v-429zM296 690q0 -17 -11.5 -28.5t-27.5 -11.5h-13q-45 0 -60 -24t-15 -87v-34h63q15 0 26 -10.5t11 -26.5t-11 -27t-26 -11h-63v-392q0 -18 -13 -30.5
t-31 -12.5t-30.5 12.5t-12.5 30.5v392h-29q-15 0 -26 11t-11 27t11 26.5t26 10.5h29v40q0 87 32.5 135.5t115.5 48.5h27q16 0 27.5 -11.5t11.5 -27.5zM429 667q0 -22 -16 -37.5t-39 -15.5t-38.5 15.5t-15.5 37.5q0 23 15.5 39t38.5 16t39 -16t16 -39z" />
    <glyph glyph-name="fl" unicode="fl" horiz-adv-x="496" 
d="M459 32q0 -37 -43 -37q-28 0 -54 21q-38 33 -38 93v572q0 18 12.5 31t30.5 13q19 0 31.5 -13t12.5 -31v-557q0 -28 7 -40.5t24 -21.5t17 -30zM296 690q0 -17 -11.5 -28.5t-27.5 -11.5h-13q-45 0 -60 -24t-15 -87v-34h63q15 0 26 -10.5t11 -26.5t-11 -27t-26 -11h-63v-392
q0 -18 -13 -30.5t-31 -12.5t-30.5 12.5t-12.5 30.5v392h-29q-15 0 -26 11t-11 27t11 26.5t26 10.5h29v40q0 87 32.5 135.5t115.5 48.5h27q16 0 27.5 -11.5t11.5 -27.5z" />
    <glyph glyph-name=".notdef" horiz-adv-x="1000" 
 />
    <glyph glyph-name=".null" horiz-adv-x="0" 
 />
    <glyph glyph-name="nonmarkingreturn" horiz-adv-x="333" 
 />
    <glyph glyph-name="space" unicode=" " horiz-adv-x="295" 
 />
    <glyph glyph-name="exclam" unicode="!" horiz-adv-x="279" 
d="M192 687l-10 -440q-3 -43 -38 -43q-34 0 -37 43l-10 440q-1 21 11.5 36t35.5 15q24 0 37 -15t11 -36zM208 55q0 -27 -19 -46t-45 -19q-27 0 -46 19t-19 46q0 26 19 45t46 19q26 0 45 -19t19 -45z" />
    <glyph glyph-name="quotedbl" unicode="&#x22;" horiz-adv-x="358" 
d="M307 688l-8 -124q-3 -39 -35 -39q-33 0 -36 39l-9 124q-2 20 10 35t35 15t34 -15t9 -35zM132 688l-9 -124q-3 -39 -35 -39q-31 0 -36 39l-8 124q-2 20 9.5 35t34.5 15t34.5 -15t9.5 -35z" />
    <glyph glyph-name="numbersign" unicode="#" horiz-adv-x="744" 
d="M711 504q0 -17 -12 -29t-29 -12h-113l-30 -199h100q17 0 29 -12t12 -29t-12 -29t-29 -12h-113l-23 -157q-3 -17 -16.5 -27t-30.5 -7q-17 2 -27 16t-8 31l22 144h-181l-24 -157q-2 -17 -16 -27t-31 -7q-17 2 -27 16t-8 31l22 144h-101q-17 0 -29 12t-12 29t12 29t29 12
h113l31 199h-101q-17 0 -29 12t-12 29t12 29t29 12h113l24 158q3 17 17 27t31 8q17 -3 26.5 -17t7.5 -31l-22 -145h181l24 158q2 17 16 27t31 8q17 -3 27 -17t8 -31l-22 -145h100q16 0 28.5 -12.5t12.5 -28.5zM473 463h-181l-30 -199h182z" />
    <glyph glyph-name="dollar" unicode="$" horiz-adv-x="560" 
d="M521 214q0 -96 -57.5 -153t-158.5 -68v-67q0 -15 -11 -26t-26 -11q-16 0 -26.5 11t-10.5 26v65q-98 3 -162 31q-29 12 -29 41q0 17 11.5 30t28.5 13q8 0 33 -10t52 -15q40 -9 89 -9q88 0 132.5 36.5t44.5 98.5q0 44 -23 68t-74 39q-16 5 -93.5 21t-109.5 32
q-89 45 -89 156q0 87 51.5 142.5t137.5 68.5v69q0 15 11 26t26 11t26 -11.5t11 -25.5v-66q82 -2 139 -27q29 -10 29 -40q0 -17 -11.5 -30t-30.5 -13q-8 0 -30 8t-44 13q-33 7 -75 7q-70 0 -110 -33.5t-40 -90.5q0 -45 24 -68t75 -38q19 -5 68 -14t87.5 -19.5t62.5 -26.5
q72 -47 72 -151z" />
    <glyph glyph-name="percent" unicode="%" horiz-adv-x="566" 
d="M275 563q0 -51 -31 -81t-78 -30q-48 0 -79 30t-31 81v64q0 51 31 81t79 30q47 0 78 -30t31 -81v-64zM437 699l-254 -690q-4 -11 -15 -16t-22 -1t-16 15t-1 23l253 690q5 11 16 15.5t22 0.5t16 -15t1 -22zM510 102q0 -51 -31 -81t-79 -30q-47 0 -78 30t-31 81v64
q0 51 31 81t78 30q48 0 79 -30t31 -81v-64zM217 560v69q0 26 -14 41t-37 15t-37 -15t-14 -41v-69q0 -26 14 -40.5t37 -14.5t37 14.5t14 40.5zM452 99v69q0 26 -14 40.5t-38 14.5q-22 0 -36 -14.5t-14 -40.5v-69q0 -26 14 -40.5t36 -14.5q24 0 38 14.5t14 40.5z" />
    <glyph glyph-name="ampersand" unicode="&#x26;" horiz-adv-x="623" 
d="M594 33q0 -18 -13 -30.5t-30 -12.5q-21 0 -35 19l-49 64q-83 -83 -208 -83q-100 0 -154.5 61t-54.5 146q0 74 41.5 125.5t111.5 94.5q-74 97 -74 163q0 78 52 118t120 40q71 0 116 -26q27 -15 44.5 -38.5t17.5 -42.5q0 -18 -12.5 -30t-29.5 -12q-13 0 -29 18
q-10 12 -28 25q-37 28 -78 28q-33 0 -58.5 -22.5t-25.5 -61.5q0 -9 2 -18t7 -19.5t8.5 -17t12 -19.5t11.5 -16.5t13.5 -17.5t11.5 -15l183 -238q27 53 30 123q2 17 14 28t29 11t29.5 -12.5t12.5 -30.5q-2 -43 -17 -97t-42 -96l61 -80q10 -13 10 -28zM416 139l-163 214
q-118 -66 -118 -154q0 -56 34 -92t95 -36q92 0 152 68z" />
    <glyph glyph-name="quotesingle" unicode="'" horiz-adv-x="189" 
d="M138 688l-9 -124q-3 -39 -34 -39q-33 0 -36 39l-9 124q-2 20 10 35t35 15t34 -15t9 -35z" />
    <glyph glyph-name="parenleft" unicode="(" horiz-adv-x="296" 
d="M245 -136q0 -20 -12.5 -32.5t-30.5 -12.5q-23 0 -36 21q-120 192 -120 481t120 481q14 22 36 22q18 0 30.5 -13t12.5 -32q0 -14 -8 -32q-101 -177 -101 -426t101 -426q8 -16 8 -31z" />
    <glyph glyph-name="parenright" unicode=")" horiz-adv-x="296" 
d="M250 321q0 -288 -119 -481q-14 -21 -37 -21q-18 0 -30.5 12.5t-12.5 32.5q0 18 8 31q101 175 101 426t-101 426q-8 15 -8 32q0 19 12.5 32t30.5 13q22 0 37 -22q119 -193 119 -481z" />
    <glyph glyph-name="asterisk" unicode="*" horiz-adv-x="481" 
d="M431 599q6 -18 -3 -31t-25 -16l-115 -30l76 -92q11 -11 10 -27t-16 -27q-16 -12 -30 -8t-23 19l-65 100l-64 -100q-8 -15 -22 -19t-31 8q-16 11 -16 27t11 27l75 92l-115 30q-16 3 -25 16t-3 31t21 23.5t29 -1.5l111 -44l-7 119q-2 17 7.5 29t28.5 12q20 0 29.5 -12
t7.5 -29l-7 -119l111 44q14 7 29 1.5t21 -23.5z" />
    <glyph glyph-name="plus" unicode="+" horiz-adv-x="550" 
d="M488 277q0 -17 -12 -29t-29 -12h-131v-131q0 -17 -12 -29.5t-29 -12.5t-29 12.5t-12 29.5v131h-131q-17 0 -29 12t-12 29t12 29t29 12h131v131q0 17 12 29t29 12t29 -12t12 -29v-131h131q17 0 29 -12t12 -29z" />
    <glyph glyph-name="comma" unicode="," horiz-adv-x="251" 
d="M194 36q0 -72 -38 -116t-67 -44q-22 0 -22 21q0 12 12.5 23t26.5 27.5t17 40.5q-26 2 -43.5 21t-17.5 45q0 28 19.5 47t46.5 19q30 0 48 -23.5t18 -60.5z" />
    <glyph glyph-name="hyphen" unicode="-" horiz-adv-x="490" 
d="M420 293q0 -17 -12 -28.5t-28 -11.5h-269q-17 0 -29 11.5t-12 28.5t12 29t29 12h269q17 0 28.5 -12t11.5 -29z" />
    <glyph glyph-name="hyphen" unicode="&#xad;" horiz-adv-x="490" 
d="M420 293q0 -17 -12 -28.5t-28 -11.5h-269q-17 0 -29 11.5t-12 28.5t12 29t29 12h269q17 0 28.5 -12t11.5 -29z" />
    <glyph glyph-name="period" unicode="." horiz-adv-x="255" 
d="M192 55q0 -27 -19 -46t-45 -19q-27 0 -46 19t-19 46q0 26 19 45t46 19q26 0 45 -19t19 -45z" />
    <glyph glyph-name="slash" unicode="/" horiz-adv-x="325" 
d="M327 751l-257 -799q-4 -16 -19 -24t-32 -3q-16 5 -24 20.5t-3 31.5l256 799q5 16 20.5 24t31.5 3t24 -20.5t3 -31.5z" />
    <glyph glyph-name="zero" unicode="0" horiz-adv-x="560" 
d="M511 254q0 -114 -58.5 -188.5t-172.5 -74.5t-172.5 74.5t-58.5 188.5v221q0 114 58.5 188.5t172.5 74.5t172.5 -74.5t58.5 -188.5v-221zM421 254v220q0 84 -36 132.5t-105 48.5t-105 -48.5t-36 -132.5v-220q0 -84 35.5 -132t105.5 -48q69 0 105 48t36 132z" />
    <glyph glyph-name="one" unicode="1" horiz-adv-x="560" 
d="M502 43q0 -18 -12.5 -30.5t-30.5 -12.5h-356q-18 0 -30.5 12.5t-12.5 30.5q0 17 12.5 29.5t30.5 12.5h168v530l-171 -117q-15 -10 -32 -6.5t-27 18.5q-10 14 -6.5 31.5t18.5 27.5l235 160q16 9 28 9q18 0 31.5 -13t13.5 -31v-609h98q18 0 30.5 -12.5t12.5 -29.5z" />
    <glyph glyph-name="two" unicode="2" horiz-adv-x="560" 
d="M496 43q0 -18 -12.5 -30.5t-30.5 -12.5h-351q-19 0 -31 12t-12 31q0 121 106 214q28 25 79 63l81.5 62t55.5 63t25 81q0 56 -32 93t-95 37q-54 0 -100 -23q-13 -7 -26.5 -17.5t-22 -15t-17.5 -4.5q-17 0 -30 12.5t-13 30.5q0 22 16 33q75 66 195 66q106 0 160.5 -62.5
t54.5 -149.5q0 -53 -22.5 -98.5t-56.5 -76t-75.5 -62.5l-78.5 -59t-67 -64.5t-40 -79.5h297q18 0 30.5 -12.5t12.5 -30.5z" />
    <glyph glyph-name="three" unicode="3" horiz-adv-x="560" 
d="M482 199q0 -87 -60.5 -147.5t-171.5 -60.5q-121 0 -190 68q-14 14 -14 32q0 17 11 28.5t27 11.5q7 0 13.5 -4t19.5 -13.5t24 -16.5q42 -27 106 -27q69 0 107.5 39t38.5 98q0 124 -156 128q-46 0 -46 39q0 21 14.5 30t32.5 9q36 2 66.5 12t55 37.5t24.5 69.5
q0 53 -30 89.5t-97 36.5q-56 0 -100 -27q-11 -7 -23 -16.5t-19 -13.5t-16 -4q-15 0 -26 11t-11 29q0 20 19 36q61 65 179 65q55 0 97 -18t65 -48t34 -62.5t11 -67.5q0 -120 -116 -164q131 -40 131 -179z" />
    <glyph glyph-name="four" unicode="4" horiz-adv-x="560" 
d="M512 182q0 -17 -12 -29.5t-29 -12.5h-51v-105q0 -19 -13 -31.5t-31 -12.5t-31 12.5t-13 31.5v105h-243q-17 0 -29.5 12t-12.5 30q0 7 5 22l221 507q7 17 24 23.5t34 -0.5t23.5 -24t-0.5 -34l-196 -452h174v136q0 19 13 31.5t31 12.5t31 -12.5t13 -31.5v-136h51
q17 0 29 -12.5t12 -29.5z" />
    <glyph glyph-name="five" unicode="5" horiz-adv-x="560" 
d="M490 222q0 -96 -59 -163.5t-174 -67.5q-98 0 -160 45q-20 16 -20 38q0 17 12 30.5t29 13.5q14 0 25 -10q50 -36 114 -36q73 0 108 42.5t35 107.5q0 74 -33.5 110.5t-93.5 36.5q-44 0 -80 -26q-10 -7 -21.5 -17.5t-18.5 -15t-17 -4.5q-18 0 -30.5 12.5t-12.5 32.5l12 336
q1 18 14 30t30 12h261q17 0 29.5 -12.5t12.5 -30.5q0 -17 -12.5 -30t-29.5 -13h-222l-8 -224q44 29 99 29q99 0 155 -59.5t56 -166.5z" />
    <glyph glyph-name="six" unicode="6" horiz-adv-x="560" 
d="M501 220q0 -105 -62 -167t-163 -62t-160 74.5t-59 195.5t67.5 241.5t167.5 220.5q14 14 32 14q20 0 32.5 -13t12.5 -32q0 -17 -13 -31q-125 -121 -174 -250q46 29 101 29q93 0 155.5 -56.5t62.5 -163.5zM411 218q0 68 -37 105.5t-98 37.5q-64 0 -125 -48q-4 -23 -4 -52
q0 -94 37 -141t93 -47q63 0 98.5 38.5t35.5 106.5z" />
    <glyph glyph-name="seven" unicode="7" horiz-adv-x="560" 
d="M502 686q0 -5 -5 -25l-250 -641q-7 -17 -24 -25t-34 -1t-25 24t-1 34l235 591h-306q-17 0 -29.5 13t-12.5 30q0 18 12.5 30.5t29.5 12.5h367q18 0 30.5 -12.5t12.5 -30.5z" />
    <glyph glyph-name="eight" unicode="8" horiz-adv-x="560" 
d="M518 190q0 -89 -64.5 -144t-172.5 -55t-173.5 53t-65.5 145q0 68 39 111t112 78q-55 28 -86 67.5t-31 103.5q0 90 57 139t146 49t145.5 -50t56.5 -135q0 -54 -28.5 -92.5t-86.5 -70.5q73 -33 112.5 -77t39.5 -122zM395 543q0 55 -32 84.5t-83 29.5t-84 -29.5t-33 -82.5
q0 -47 31 -74t91 -50q52 24 81 52.5t29 69.5zM428 196q0 30 -11 52.5t-37 40t-46 27t-59 24.5q-69 -28 -106 -59.5t-37 -82.5q0 -59 41 -92.5t106 -33.5q69 0 109 33.5t40 90.5z" />
    <glyph glyph-name="nine" unicode="9" horiz-adv-x="560" 
d="M506 467q0 -121 -67.5 -242t-167.5 -220q-14 -14 -31 -14q-20 0 -33 13.5t-13 31.5q0 17 14 31q124 122 173 250q-46 -29 -101 -29q-93 0 -155 57t-62 163q0 105 62 167t162 62q102 0 160.5 -74t58.5 -196zM416 467q0 94 -37 141t-93 47q-63 0 -98 -38.5t-35 -106.5
t36.5 -105t97.5 -37q69 0 125 48q4 23 4 51z" />
    <glyph glyph-name="colon" unicode=":" horiz-adv-x="255" 
d="M192 446q0 -27 -19 -46t-45 -19q-27 0 -46 19t-19 46q0 26 19 45t46 19q26 0 45 -19t19 -45zM192 55q0 -27 -19 -46t-45 -19q-27 0 -46 19t-19 46q0 26 19 45t46 19q26 0 45 -19t19 -45z" />
    <glyph glyph-name="semicolon" unicode=";" horiz-adv-x="255" 
d="M192 446q0 -27 -19 -46t-45 -19q-27 0 -46 19t-19 46q0 26 19 45t46 19q26 0 45 -19t19 -45zM196 36q0 -72 -38.5 -116t-66.5 -44q-23 0 -23 21q0 12 12.5 23t26.5 27.5t17 40.5q-26 2 -43 21t-17 45q0 28 19 47t46 19q30 0 48.5 -23.5t18.5 -60.5z" />
    <glyph glyph-name="less" unicode="&#x3c;" horiz-adv-x="561" 
d="M492 71q-7 -14 -22.5 -18.5t-29.5 3.5l-356 184q-21 11 -21 34q0 24 21 34l356 185q14 8 29.5 3t22.5 -19q8 -14 3.5 -29.5t-18.5 -22.5l-293 -151l293 -151q14 -7 18.5 -22.5t-3.5 -29.5z" />
    <glyph glyph-name="equal" unicode="=" horiz-adv-x="550" 
d="M488 381q0 -17 -12 -29t-29 -12h-344q-17 0 -29 12t-12 29t12 29t29 12h344q17 0 29 -12t12 -29zM488 182q0 -17 -12 -29t-29 -12h-344q-17 0 -29 12t-12 29t12 29t29 12h344q17 0 29 -12t12 -29z" />
    <glyph glyph-name="greater" unicode="&#x3e;" horiz-adv-x="561" 
d="M498 274q0 -23 -21 -34l-356 -184q-15 -7 -30 -3t-22 18q-8 14 -3.5 29.5t18.5 22.5l293 151l-293 151q-14 7 -18.5 22.5t3.5 29.5q7 14 22.5 19t29.5 -3l356 -185q21 -10 21 -34z" />
    <glyph glyph-name="question" unicode="?" horiz-adv-x="490" 
d="M434 550q0 -61 -26 -98.5t-83 -83.5q-49 -39 -63 -65t-14 -60q0 -17 -11.5 -28t-29.5 -11t-30 11.5t-12 30.5q0 48 17 83.5t70 77.5q37 30 52.5 44.5t27.5 38t12 53.5q0 58 -35 86.5t-83 28.5q-70 0 -117 -44q-11 -8 -24 -8q-18 0 -30 11.5t-12 27.5q0 25 37 51
q63 42 154 42q77 0 138.5 -48t61.5 -140zM272 55q0 -27 -19 -46t-45 -19q-27 0 -46 19t-19 46q0 26 19 45t46 19q26 0 45 -19t19 -45z" />
    <glyph glyph-name="at" unicode="@" horiz-adv-x="828" 
d="M761 385q0 -94 -51 -162t-133 -68q-75 0 -100 67q-46 -65 -122 -65q-51 0 -76.5 36t-25.5 90q0 84 50.5 151.5t131.5 67.5q52 0 105 -17q26 -8 20 -38l-22 -95q-9 -47 -9 -72q0 -69 52 -69t86 51t34 121q0 104 -67 174t-212 70q-72 0 -130.5 -29.5t-93 -77t-52.5 -103
t-18 -111.5q0 -125 65 -201.5t204 -76.5q46 0 98 9q42 11 43 11q13 0 20.5 -8.5t7.5 -20.5q0 -22 -29 -30q-72 -18 -140 -18q-165 0 -247.5 93t-82.5 240q0 70 22.5 136t65 121.5t111.5 89t154 33.5q91 0 159.5 -25.5t107 -69.5t56.5 -95t18 -109zM491 434q-27 8 -58 8
q-47 0 -79.5 -49t-32.5 -106q0 -62 46 -62q38 0 64.5 30t36.5 79z" />
    <glyph glyph-name="A" unicode="A" horiz-adv-x="567" 
d="M552 46q6 -24 -8.5 -39.5t-35.5 -15.5q-35 0 -44 35q-20 81 -39 144h-286l-39 -144q-9 -35 -42 -35q-20 0 -34.5 15.5t-8.5 39.5q79 316 211 643q20 49 57 49t59 -49q130 -320 210 -643zM402 252q-51 166 -120 341q-69 -175 -120 -341h240z" />
    <glyph glyph-name="B" unicode="B" horiz-adv-x="631" 
d="M571 187q0 -187 -223 -187h-220q-19 0 -32 13t-13 32v639q0 18 13 31.5t32 13.5h199q109 0 161.5 -50.5t52.5 -128.5v-30q0 -105 -95 -145q59 -18 92 -60.5t33 -100.5v-27zM451 511v29q0 48 -30.5 76t-94.5 28h-153v-236h109q169 0 169 103zM482 195v24q0 51 -39.5 79.5
t-110.5 28.5h-159v-243h174q74 0 104.5 29t30.5 82z" />
    <glyph glyph-name="C" unicode="C" horiz-adv-x="549" 
d="M510 645q0 -16 -11 -28.5t-31 -13.5q-6 0 -11.5 2.5t-14 8.5l-12.5 9q-37 33 -104 33q-169 0 -169 -234v-116q0 -121 39 -177t125 -56q65 0 112 35q28 20 39 20q17 1 28 -11t11 -28q0 -20 -17 -33q-61 -65 -173 -65q-254 0 -254 314v119q0 144 62.5 229t196.5 85
q111 0 167 -62q17 -13 17 -31z" />
    <glyph glyph-name="D" unicode="D" horiz-adv-x="646" 
d="M580 271q0 -37 -5 -70.5t-21.5 -71.5t-43.5 -65.5t-75 -45.5t-112 -18h-195q-19 0 -32 13t-13 32v639q0 18 13 31.5t32 13.5h195q64 0 112 -18t75 -45.5t43.5 -66t21.5 -71.5t5 -71v-186zM490 271v185q0 39 -7 69.5t-24.5 58.5t-53 43.5t-87.5 15.5h-145v-559h145
q52 0 87.5 15.5t53 44t24.5 58.5t7 69z" />
    <glyph glyph-name="E" unicode="E" horiz-adv-x="554" 
d="M516 43q0 -18 -12.5 -30.5t-29.5 -12.5h-348q-18 0 -30.5 12.5t-12.5 30.5v643q0 17 12.5 30t30.5 13h333q18 0 31 -13t13 -30q0 -18 -13 -30.5t-31 -12.5h-286v-237h260q17 0 29.5 -12.5t12.5 -29.5t-12.5 -29.5t-29.5 -12.5h-260v-236h301q17 0 29.5 -12.5t12.5 -30.5z
" />
    <glyph glyph-name="F" unicode="F" horiz-adv-x="507" 
d="M494 686q0 -18 -12.5 -30.5t-30.5 -12.5h-278v-237h233q17 0 29 -12.5t12 -29.5t-12 -29.5t-29 -12.5h-233v-286q0 -19 -13 -32t-32 -13t-32 13t-13 32v650q0 17 12.5 30t30.5 13h325q18 0 30.5 -13t12.5 -30z" />
    <glyph glyph-name="G" unicode="G" horiz-adv-x="615" 
d="M557 240q0 -112 -59 -180.5t-177 -68.5q-254 0 -254 314v119q0 144 62.5 229t197.5 85q112 0 169 -62q17 -15 17 -33q0 -16 -11 -28t-31 -12q-10 -1 -40 20q-41 33 -104 33q-170 0 -170 -234v-116q0 -121 39 -177t125 -56q149 0 149 165v53h-120q-17 0 -29 12.5t-12 29.5
t12 29.5t29 12.5h164q18 0 30.5 -13t12.5 -32v-90z" />
    <glyph glyph-name="H" unicode="H" horiz-adv-x="676" 
d="M593 36q0 -19 -13 -32t-31 -13q-19 0 -32 13t-13 32v281h-331v-281q0 -19 -13 -32t-32 -13t-32 13t-13 32v657q0 18 13 31.5t32 13.5t32 -13.5t13 -31.5v-294h331v294q0 18 13 31.5t32 13.5q18 0 31 -13.5t13 -31.5v-657z" />
    <glyph glyph-name="I" unicode="I" horiz-adv-x="256" 
d="M173 36q0 -19 -13 -32t-32 -13t-32 13t-13 32v657q0 18 13 31.5t32 13.5t32 -13.5t13 -31.5v-657z" />
    <glyph glyph-name="J" unicode="J" horiz-adv-x="438" 
d="M367 259q0 -268 -241 -268q-43 0 -86 8q-36 7 -36 42q0 18 11.5 30.5t30.5 12.5q2 0 32 -5q22 -3 48 -3q82 0 116.5 42.5t34.5 140.5v434q0 18 13 31.5t32 13.5q18 0 31.5 -13.5t13.5 -31.5v-434z" />
    <glyph glyph-name="K" unicode="K" horiz-adv-x="569" 
d="M546 57q13 -25 -2 -45.5t-40 -20.5t-38 24q-97 174 -210 335l-83 -100v-214q0 -19 -13 -32t-32 -13t-32 13t-13 32v657q0 18 13 31.5t32 13.5t32 -13.5t13 -31.5v-322l282 351q14 16 35 16q15 0 28 -11q14 -11 15.5 -30t-9.5 -32l-208 -246q127 -177 230 -362z" />
    <glyph glyph-name="L" unicode="L" horiz-adv-x="523" 
d="M515 43q0 -18 -12.5 -30.5t-30.5 -12.5h-346q-18 0 -30.5 12.5t-12.5 30.5v650q0 18 13 31.5t32 13.5t32 -13.5t13 -31.5v-607h299q18 0 30.5 -12.5t12.5 -30.5z" />
    <glyph glyph-name="M" unicode="M" horiz-adv-x="785" 
d="M702 33q0 -17 -12.5 -29.5t-29.5 -12.5t-29.5 12.5t-12.5 29.5v504l-185 -394q-12 -26 -41 -26t-41 26l-185 393v-504q0 -17 -12.5 -29t-29.5 -12t-29 12t-12 29v664q0 18 12 30t31 12q30 0 44 -27l223 -468l224 470q13 25 42 25q19 0 31 -12t12 -30v-663z" />
    <glyph glyph-name="N" unicode="N" horiz-adv-x="668" 
d="M585 33q0 -18 -12 -30t-32 -12q-30 0 -43 22l-332 539v-519q0 -17 -12.5 -29.5t-29.5 -12.5t-29 12.5t-12 29.5v663q0 18 12 30t32 12q30 0 44 -25l331 -537v520q0 17 12.5 29.5t29.5 12.5t29 -12.5t12 -29.5v-663z" />
    <glyph glyph-name="O" unicode="O" 
d="M566 261q0 -54 -13 -100t-41 -85.5t-78 -62t-117 -22.5q-68 0 -118 22.5t-78 62t-41 85.5t-13 100v207q0 54 13 100t41 85.5t78 62t118 22.5q67 0 117 -22.5t78 -62t41 -85.5t13 -100v-207zM476 261v207q0 187 -159 187q-160 0 -160 -187v-207q0 -188 160 -188
q159 0 159 188z" />
    <glyph glyph-name="P" unicode="P" horiz-adv-x="591" 
d="M549 481q0 -86 -58.5 -139t-161.5 -53h-156v-253q0 -19 -13 -32t-32 -13t-32 13t-13 32v648q0 18 13 31.5t32 13.5h191q118 0 174 -58t56 -139v-51zM460 483v48q0 46 -34 79.5t-113 33.5h-140v-273h153q67 0 100.5 31.5t33.5 80.5z" />
    <glyph glyph-name="Q" unicode="Q" 
d="M584 -20q-11 -13 -26.5 -14t-30.5 12l-60 56q-59 -43 -150 -43q-68 0 -118 22.5t-78 62t-41 85.5t-13 100v207q0 54 13 100t41 85.5t78 62t118 22.5q67 0 117 -22.5t78 -62t41 -85.5t13 -100v-207q0 -104 -44 -170l60 -54q14 -13 14 -28.5t-12 -28.5zM477 261v207
q0 187 -160 187t-160 -187v-207q0 -188 160 -188q51 0 86 24l-32 30q-12 11 -11.5 25t11.5 26q9 10 22 12t24 -7l33 -28q27 40 27 106z" />
    <glyph glyph-name="R" unicode="R" horiz-adv-x="606" 
d="M552 55q12 -25 -3 -44.5t-39 -19.5q-28 0 -39 26q-79 152 -164 284h-134v-265q0 -19 -13 -32t-32 -13t-32 13t-13 32v648q0 18 13 31.5t32 13.5h190q116 0 174 -52.5t58 -138.5v-43q0 -64 -37.5 -113t-109.5 -66q85 -134 149 -261zM460 495v43q0 46 -34.5 76.5
t-108.5 30.5h-144v-261h143q71 0 107.5 32t36.5 79z" />
    <glyph glyph-name="S" unicode="S" horiz-adv-x="577" 
d="M531 215q0 -106 -70.5 -165t-189.5 -59q-116 0 -192 32q-29 12 -29 41q0 17 11.5 30t28.5 13q8 0 33 -10t52 -15q41 -9 89 -9q88 0 132.5 36t44.5 98q0 44 -23 68t-74 39q-18 6 -94.5 22t-107.5 31q-90 44 -90 156q0 100 66 157.5t169 57.5q99 0 167 -28q29 -10 29 -40
q0 -18 -11.5 -31t-30.5 -13q-7 0 -29 8.5t-45 13.5q-33 7 -75 7q-70 0 -110 -33.5t-40 -90.5q0 -45 24 -68t75 -37q22 -6 70.5 -15t86 -20t61.5 -27q72 -47 72 -149z" />
    <glyph glyph-name="T" unicode="T" horiz-adv-x="573" 
d="M564 685q0 -18 -13 -30.5t-31 -12.5h-189v-606q0 -19 -13 -32t-32 -13q-18 0 -31.5 13t-13.5 32v606h-189q-18 0 -30.5 12.5t-12.5 30.5t12.5 31t30.5 13h468q18 0 31 -13t13 -31z" />
    <glyph glyph-name="U" unicode="U" 
d="M566 237q0 -108 -63.5 -177t-185.5 -69q-124 0 -187 69t-63 177v456q0 19 13 32t31 13q19 0 32 -13t13 -32v-453q0 -74 38.5 -121.5t122.5 -47.5q83 0 121 47t38 122v453q0 18 13.5 31.5t31.5 13.5q19 0 32 -13.5t13 -31.5v-456z" />
    <glyph glyph-name="V" unicode="V" horiz-adv-x="567" 
d="M552 684q-86 -290 -217 -648q-15 -45 -53 -45q-39 0 -55 46q-129 356 -212 643q-7 25 8 41.5t37 16.5q32 0 41 -34q88 -297 184 -564q100 277 185 567q10 31 40 31q20 0 34 -15.5t8 -38.5z" />
    <glyph glyph-name="W" unicode="W" horiz-adv-x="868" 
d="M850 696q0 -4 -2 -12q-68 -304 -164 -641q-15 -52 -58 -52q-44 0 -58 51q-75 262 -134 514q-59 -252 -134 -514q-14 -51 -58 -51q-43 0 -58 52q-96 337 -164 641q-2 8 -2 12q0 19 14 30.5t32 11.5q33 0 42 -35q54 -249 139 -560q78 283 135 542q12 53 55 53q41 0 53 -53
q65 -288 135 -542q79 285 139 560q9 35 42 35q18 0 32 -11.5t14 -30.5z" />
    <glyph glyph-name="X" unicode="X" horiz-adv-x="546" 
d="M540 34q0 -18 -14 -30.5t-32 -12.5q-23 0 -36 23q-83 141 -185 288q-102 -147 -185 -288q-13 -23 -36 -23q-18 0 -32 12.5t-14 30.5q0 14 6 24q86 147 208 323q-104 149 -181 291q-5 10 -5 23q0 18 13.5 30.5t31.5 12.5q23 0 37 -24q70 -129 157 -257q80 120 156 257
q13 24 37 24q18 0 32 -13t14 -31q0 -12 -6 -22q-74 -138 -180 -293q137 -200 207 -322q7 -11 7 -23z" />
    <glyph glyph-name="Y" unicode="Y" horiz-adv-x="503" 
d="M503 695q0 -6 -4 -18q-80 -183 -203 -410v-231q0 -19 -13 -32t-32 -13t-32 13t-13 32v231q-116 212 -202 408q-4 8 -4 19q0 19 14 31.5t33 12.5q26 0 39 -27q59 -141 166 -342q95 176 167 342q13 27 38 27q18 0 32 -12.5t14 -30.5z" />
    <glyph glyph-name="Z" unicode="Z" horiz-adv-x="519" 
d="M499 43q0 -18 -12.5 -30.5t-30.5 -12.5h-394q-19 0 -31 12.5t-12 30.5t13 42l344 558h-313q-17 0 -29.5 12.5t-12.5 30.5q0 17 12.5 30t29.5 13h392q20 0 31 -12t11 -31q0 -18 -13 -38l-347 -562h319q18 0 30.5 -12.5t12.5 -30.5z" />
    <glyph glyph-name="bracketleft" unicode="[" horiz-adv-x="277" 
d="M230 -141q0 -18 -13 -30.5t-31 -12.5h-93q-18 0 -30.5 12.5t-12.5 30.5v921q0 18 12.5 30.5t30.5 12.5h93q18 0 31 -12.5t13 -30.5q0 -17 -13 -29.5t-31 -12.5h-46v-835h46q18 0 31 -13t13 -31z" />
    <glyph glyph-name="backslash" unicode="\" horiz-adv-x="366" 
d="M370 -10q5 -16 -1.5 -31t-21.5 -21q-16 -6 -31.5 1t-21.5 22l-294 775q-6 16 0.5 31.5t22.5 20.5q16 6 31 -0.5t21 -22.5z" />
    <glyph glyph-name="bracketright" unicode="]" horiz-adv-x="277" 
d="M227 -141q0 -18 -13 -30.5t-31 -12.5h-93q-18 0 -30.5 12.5t-12.5 30.5t12.5 31t30.5 13h47v835h-47q-18 0 -30.5 12.5t-12.5 29.5q0 18 12.5 30.5t30.5 12.5h93q18 0 31 -12.5t13 -30.5v-921z" />
    <glyph glyph-name="asciicircum" unicode="^" horiz-adv-x="500" 
d="M447 465q9 -14 5.5 -30t-16.5 -25q-14 -10 -30.5 -6.5t-25.5 17.5l-130 205l-130 -205q-9 -14 -25.5 -17.5t-29.5 6.5q-14 9 -17.5 25.5t5.5 29.5l155 244q16 26 42 26t42 -26z" />
    <glyph glyph-name="underscore" unicode="_" horiz-adv-x="470" 
d="M508 -135q0 -16 -11 -27.5t-27 -11.5h-470q-16 0 -27.5 11.5t-11.5 27.5t11.5 27.5t27.5 11.5h470q16 0 27 -11.5t11 -27.5z" />
    <glyph glyph-name="grave" unicode="`" horiz-adv-x="530" 
d="M209 798q9 5 20 5q23 0 33 -21l75 -138q4 -10 4 -16q0 -20 -19 -29q-8 -5 -16 -5q-18 0 -30 20l-81 134q-6 8 -6 19q0 20 20 31z" />
    <glyph glyph-name="a" unicode="a" horiz-adv-x="504" 
d="M467 32q0 -38 -43 -38q-31 0 -52 21q-13 10 -20 30q-47 -51 -140 -51q-88 0 -131.5 40.5t-43.5 106.5v8q0 66 46.5 105.5t137.5 39.5h114v24q0 64 -21.5 92t-81.5 28q-57 0 -102 -25q-21 -11 -39.5 0t-18.5 29.5t18 33.5q56 35 147 35q103 0 144 -48.5t41 -152.5v-186
q0 -28 6.5 -41t21.5 -22q17 -9 17 -29zM335 167v59h-105q-106 0 -106 -78v-8q0 -78 103 -78q51 0 79.5 26.5t28.5 78.5z" />
    <glyph glyph-name="b" unicode="b" horiz-adv-x="522" 
d="M468 199q0 -98 -46 -151.5t-140 -53.5q-74 0 -132 42q-9 -14 -17 -21q-24 -21 -53 -21q-43 0 -43 38q0 20 17 29q16 9 22 21.5t6 41.5v557q0 18 12.5 30.5t30.5 12.5t31 -12.5t13 -30.5v-217q53 47 126 47q94 0 133.5 -55.5t39.5 -160.5v-96zM380 193v113q0 65 -24 97
t-79 32q-65 0 -108 -53v-274q46 -38 101 -38q110 0 110 123z" />
    <glyph glyph-name="c" unicode="c" horiz-adv-x="426" 
d="M393 433q-7 -14 -20 -18.5t-28 1.5q-36 20 -86 20q-55 0 -86 -39t-31 -104v-81q0 -68 28.5 -105.5t85.5 -37.5q50 0 91 21q15 6 28.5 1t19.5 -19q6 -16 0.5 -29t-18.5 -20q-53 -29 -125 -29q-100 0 -149 60.5t-49 161.5v70q0 97 51.5 161t146.5 64q78 0 125 -29
q32 -18 16 -49z" />
    <glyph glyph-name="d" unicode="d" horiz-adv-x="522" 
d="M485 32q0 -38 -43 -38q-29 0 -53 21q-13 11 -17 24q-62 -45 -133 -45q-185 0 -185 203v90q0 224 179 224q68 0 120 -39v208q0 19 12.5 31.5t30.5 12.5q19 0 31.5 -12.5t12.5 -31.5v-556q0 -29 6 -41.5t22 -20.5q17 -11 17 -30zM353 112v277q-43 46 -104 46
q-107 0 -107 -135v-109q0 -62 25.5 -91.5t84.5 -29.5q52 0 101 42z" />
    <glyph glyph-name="e" unicode="e" horiz-adv-x="494" 
d="M447 260q0 -15 -9.5 -24.5t-23.5 -9.5h-273v-27q0 -61 28 -95.5t85 -34.5q71 0 125 28q14 7 28 1t19 -21q11 -31 -17 -47q-69 -36 -158 -36q-101 0 -149 59t-48 153v93q0 93 49 152.5t148 59.5q103 0 149.5 -58.5t46.5 -151.5v-41zM362 295v17q0 127 -109 127
q-112 0 -112 -127v-17h221z" />
    <glyph glyph-name="f" unicode="f" horiz-adv-x="315" 
d="M338 689q0 -17 -11.5 -28t-28.5 -11h-27q-60 0 -81 -27t-21 -94v-24h83q16 0 27 -11t11 -27q0 -15 -11 -26t-27 -11h-83v-392q0 -19 -13 -31.5t-31 -12.5t-30.5 12.5t-12.5 31.5v392h-29q-15 0 -26 11t-11 26q0 16 11 27t26 11h29v24q0 98 41 149t139 51h36
q17 0 28.5 -11.5t11.5 -28.5z" />
    <glyph glyph-name="g" unicode="g" horiz-adv-x="512" 
d="M441 37q0 -101 -48.5 -160.5t-153.5 -59.5q-81 0 -136 24q-26 12 -26 35q0 17 13 29t30 8q6 -1 27.5 -7.5t41 -10t45.5 -3.5q120 0 120 141v28q-58 -40 -124 -40q-95 0 -135.5 54t-40.5 156v66q0 214 178 214q70 0 125 -48l1 20q0 12 12 20t27 8q20 0 32 -12.5t12 -31.5
v-430zM354 139v246q-45 49 -107 49q-105 0 -105 -127v-86q0 -63 23.5 -93t79.5 -30q62 0 109 41z" />
    <glyph glyph-name="h" unicode="h" horiz-adv-x="531" 
d="M461 38q0 -19 -12.5 -31.5t-30.5 -12.5t-31 12.5t-13 31.5v282q0 52 -20.5 80t-74.5 28q-83 0 -121 -63v-327q0 -19 -13 -31.5t-31 -12.5t-30.5 12.5t-12.5 31.5v642q0 19 12.5 31.5t30.5 12.5t31 -12.5t13 -31.5v-217q53 48 140 48q163 0 163 -183v-290z" />
    <glyph glyph-name="i" unicode="i" horiz-adv-x="229" 
d="M169 667q0 -22 -16 -37.5t-39 -15.5t-38.5 15.5t-15.5 37.5q0 23 15.5 39t38.5 16t39 -16t16 -39zM158 38q0 -19 -13 -31.5t-31 -12.5t-30.5 12.5t-12.5 31.5v429q0 19 12.5 31.5t30.5 12.5t31 -12.5t13 -31.5v-429z" />
    <glyph glyph-name="j" unicode="j" horiz-adv-x="229" 
d="M158 6q0 -189 -170 -189q-17 0 -27.5 11t-10.5 27t10.5 26.5t27.5 11.5q43 2 62.5 25.5t19.5 82.5v465q0 19 13 31.5t31 12.5q19 0 31.5 -13t12.5 -31v-460zM60 667q0 23 16 38.5t38 15.5t38 -15.5t16 -38.5q0 -22 -15.5 -37.5t-38.5 -15.5t-38.5 15.5t-15.5 37.5z" />
    <glyph glyph-name="k" unicode="k" horiz-adv-x="467" 
d="M446 54q11 -24 -3 -42t-37 -18q-26 0 -37 26q-59 119 -139 228l-72 -72v-138q0 -19 -13 -31.5t-31 -12.5t-30.5 12.5t-12.5 31.5v642q0 19 12.5 31.5t30.5 12.5t31 -12.5t13 -31.5v-398l214 218q12 11 28.5 10.5t28.5 -11.5q11 -11 11 -28t-12 -27l-137 -137
q95 -130 155 -253z" />
    <glyph glyph-name="l" unicode="l" horiz-adv-x="240" 
d="M203 32q0 -38 -44 -38q-27 0 -53 21q-39 34 -39 94v571q0 19 13 31.5t31 12.5t31 -12.5t13 -31.5v-556q0 -29 7 -41.5t24 -20.5q17 -11 17 -30z" />
    <glyph glyph-name="m" unicode="m" horiz-adv-x="831" 
d="M761 38q0 -19 -13 -31.5t-31 -12.5t-31 12.5t-13 31.5v282q0 53 -20 80.5t-72 27.5q-81 0 -117 -64q3 -16 3 -35v-291q0 -19 -13 -31.5t-31 -12.5t-31 12.5t-13 31.5v282q0 53 -20 80.5t-72 27.5q-79 0 -115 -59v-331q0 -19 -12.5 -31.5t-30.5 -12.5t-31 12.5t-13 31.5
v337q0 28 -7.5 41t-23.5 22q-17 9 -17 29q0 38 43 38q28 0 54 -21q13 -12 21 -29q56 56 151 56q98 0 135 -66q55 66 158 66q162 0 162 -182v-291z" />
    <glyph glyph-name="n" unicode="n" horiz-adv-x="547" 
d="M477 38q0 -19 -13 -31.5t-32 -12.5q-18 0 -31 12.5t-13 31.5v282q0 53 -20 80.5t-74 27.5q-82 0 -122 -63v-327q0 -19 -12.5 -31.5t-30.5 -12.5t-31 12.5t-13 31.5v337q0 28 -7.5 41t-23.5 22q-17 9 -17 29q0 38 43 38q28 0 54 -21q16 -16 22 -33q55 60 157 60
q163 0 163 -183z" />
    <glyph glyph-name="o" unicode="o" horiz-adv-x="511" 
d="M456 201q0 -92 -49.5 -149.5t-151.5 -57.5q-101 0 -151 57.5t-50 149.5v103q0 92 50 149.5t151 57.5q102 0 151.5 -57.5t49.5 -149.5v-103zM369 201v102q0 127 -114 127q-113 0 -113 -127v-102q0 -127 113 -127q114 0 114 127z" />
    <glyph glyph-name="p" unicode="p" horiz-adv-x="522" 
d="M468 218q0 -224 -180 -224q-67 0 -119 39v-172q0 -19 -12.5 -31.5t-31.5 -12.5q-18 0 -30.5 12.5t-12.5 31.5v520q0 28 -6.5 41t-21.5 22q-17 9 -17 29q0 38 43 38q28 0 53 -21q11 -10 18 -24q60 45 131 45q186 0 186 -202v-91zM380 205v109q0 62 -25.5 91.5t-84.5 29.5
q-51 0 -101 -41v-278q43 -46 104 -46q107 0 107 135z" />
    <glyph glyph-name="q" unicode="q" horiz-adv-x="522" 
d="M485 473q0 -20 -17 -29q-16 -9 -22 -21.5t-6 -41.5v-520q0 -19 -12.5 -31.5t-30.5 -12.5q-19 0 -31.5 12.5t-12.5 31.5v180q-53 -47 -126 -47q-94 0 -133.5 55.5t-39.5 160.5v96q0 98 46 151.5t140 53.5q74 0 132 -42q9 14 17 21q24 21 53 21q43 0 43 -38zM353 123v274
q-46 38 -102 38q-109 0 -109 -123v-113q0 -65 24 -97t79 -32q65 0 108 53z" />
    <glyph glyph-name="r" unicode="r" horiz-adv-x="390" 
d="M387 463q0 -19 -11 -31.5t-31 -12.5q-6 0 -23.5 3.5t-37.5 3.5q-92 0 -112 -90v-298q0 -19 -12.5 -31.5t-30.5 -12.5t-31 12.5t-13 31.5v337q0 28 -7.5 41t-23.5 22q-17 9 -17 29q0 38 44 38q27 0 48.5 -18.5t31.5 -43.5q48 67 138 67q35 0 61.5 -11.5t26.5 -35.5z" />
    <glyph glyph-name="s" unicode="s" horiz-adv-x="436" 
d="M395 148q0 -75 -52.5 -114.5t-138.5 -39.5q-82 0 -142 22q-15 5 -21 19.5t-1 29.5q5 16 19.5 22.5t30.5 0.5q49 -19 115 -19q53 0 79.5 20.5t26.5 55.5q0 15 -6.5 27t-14 19t-24.5 13t-27.5 8.5t-34.5 7.5l-34 7q-61 14 -95 42.5t-34 92.5q0 70 48 109.5t123 39.5
q74 0 130 -22q15 -5 21 -19.5t1 -29.5t-19 -21.5t-29 -1.5q-52 20 -100 20q-44 0 -68 -19.5t-24 -51.5q0 -8 2 -15.5t4.5 -13t8.5 -10.5l10.5 -8.5t13.5 -7l14.5 -5.5t17.5 -5t17.5 -4t19 -4t19.5 -4q32 -6 53 -13.5t44.5 -22.5t35 -41.5t11.5 -63.5z" />
    <glyph glyph-name="t" unicode="t" horiz-adv-x="337" 
d="M326 40q0 -17 -11.5 -28.5t-27.5 -11.5h-30q-98 0 -136 55t-38 162v213h-29q-16 0 -27 11t-11 26q0 16 11 27t27 11h29v103q0 18 12.5 31t31.5 13q18 0 30.5 -13t12.5 -31v-103h93q16 0 27 -11t11 -27q0 -15 -11 -26t-27 -11h-93l1 -212q0 -78 19 -108t76 -30h21
q16 0 27.5 -11.5t11.5 -28.5z" />
    <glyph glyph-name="u" unicode="u" horiz-adv-x="547" 
d="M511 32q0 -19 -12.5 -28.5t-31.5 -9.5q-29 0 -53 21q-16 14 -25 37q-55 -58 -154 -58q-164 0 -164 182v291q0 19 12.5 31.5t30.5 12.5q19 0 31.5 -12.5t12.5 -31.5v-282q0 -54 20.5 -81t74.5 -27q86 0 121 67v323q0 19 13 31.5t31 12.5t31 -13t13 -31v-343q0 -29 7 -41.5
t24 -20.5q18 -11 18 -30z" />
    <glyph glyph-name="v" unicode="v" horiz-adv-x="463" 
d="M441 456q-76 -225 -155 -418q-18 -44 -57 -44q-41 0 -58 44q-89 230 -150 420q-6 23 7.5 38t33.5 15q28 0 37 -28q58 -181 130 -374q69 179 132 373q10 29 39 29q21 0 35 -16t6 -39z" />
    <glyph glyph-name="w" unicode="w" horiz-adv-x="708" 
d="M685 463q-68 -263 -123 -430q-13 -39 -55 -39q-43 0 -54 39q-48 151 -99 335q-53 -193 -99 -335q-11 -39 -54 -39q-42 0 -55 39q-64 198 -122 430q-5 21 8 34.5t32 13.5q32 0 39 -31q61 -231 102 -365q57 186 100 357q8 39 50 39q39 0 48 -39q54 -206 101 -357
q54 179 101 365q7 31 40 31q19 0 31.5 -13.5t8.5 -34.5z" />
    <glyph glyph-name="x" unicode="x" horiz-adv-x="448" 
d="M417 58q13 -25 -2 -44.5t-39 -19.5q-26 0 -39 25q-36 68 -115 172q-85 -114 -116 -174q-13 -23 -36 -23t-37 18.5t-3 41.5q36 68 140 204q-92 122 -127 191q-11 24 4 43t38 19q27 0 40 -25q40 -79 100 -156q71 96 102 157q11 24 37 24q22 0 36 -17.5t3 -40.5
q-40 -80 -127 -191q103 -130 141 -204z" />
    <glyph glyph-name="y" unicode="y" horiz-adv-x="454" 
d="M433 453l-135 -383q-45 -130 -101.5 -189.5t-145.5 -63.5q-22 -1 -34.5 11.5t-12.5 31.5q0 16 10 28.5t30 13.5q44 1 78 23t64 79q-111 272 -168 453q-7 23 6.5 38.5t34.5 15.5q30 0 39 -30q62 -189 130 -368l124 369q8 29 39 29q22 0 36 -17t6 -41z" />
    <glyph glyph-name="z" unicode="z" horiz-adv-x="424" 
d="M404 466q0 -16 -12 -34l-255 -354h228q17 0 28 -11t11 -28q0 -16 -11.5 -27.5t-27.5 -11.5h-304q-15 0 -27.5 12t-12.5 31q0 16 8 25l258 358h-210q-16 0 -27.5 12t-11.5 28t11.5 27.5t27.5 11.5h286q16 0 28.5 -10t12.5 -29z" />
    <glyph glyph-name="braceleft" unicode="{" horiz-adv-x="316" 
d="M271 -139q0 -19 -11.5 -31.5t-30.5 -12.5h-7q-60 0 -99.5 44t-39.5 122q0 38 19.5 113t19.5 106q0 42 -16 61.5t-36 19.5h-5q-15 0 -25 11t-10 26q0 16 9.5 26.5t25.5 10.5h5q20 0 36 19.5t16 62.5q0 31 -19.5 105.5t-19.5 112.5q0 78 39.5 122t99.5 44h7
q19 0 30.5 -12.5t11.5 -30.5t-11 -30.5t-28 -12.5h-5q-23 0 -39 -22t-16 -62q0 -35 19.5 -105t19.5 -107q0 -87 -63 -118v-5q63 -32 63 -118q0 -38 -19.5 -108.5t-19.5 -104.5q0 -40 16 -62t39 -22h5q17 0 28 -12t11 -30z" />
    <glyph glyph-name="bar" unicode="|" horiz-adv-x="236" 
d="M163 -138q0 -19 -13 -32t-32 -13t-32 13t-13 32v918q0 19 13 32t32 13t32 -13t13 -32v-918z" />
    <glyph glyph-name="braceright" unicode="}" horiz-adv-x="316" 
d="M286 320q0 -15 -9.5 -26t-24.5 -11h-6q-20 0 -36 -19.5t-16 -61.5q0 -31 19.5 -106t19.5 -113q0 -78 -39 -122t-100 -44h-7q-19 0 -30.5 12.5t-11.5 31.5q0 18 11 30t28 12h5q23 0 38.5 22t15.5 62q0 35 -18.5 105t-18.5 108q0 87 63 118v5q-63 31 -63 118q0 37 18.5 107
t18.5 105q0 40 -15.5 62t-38.5 22h-5q-17 0 -28 12.5t-11 30.5t12 30.5t30 12.5h7q61 0 100 -44t39 -122q0 -38 -19.5 -112.5t-19.5 -105.5q0 -43 16 -62.5t36 -19.5h6q15 0 24.5 -10.5t9.5 -26.5z" />
    <glyph glyph-name="asciitilde" unicode="~" horiz-adv-x="544" 
d="M483 291q0 -34 -38.5 -56t-87.5 -22q-39 0 -88 23t-75 23q-28 0 -51 -15.5t-37 -15.5q-19 0 -32 13t-13 32q0 34 38.5 56t87.5 22q39 0 88 -23.5t75 -23.5q28 0 51 16t37 16q19 0 32 -13.5t13 -31.5z" />
    <glyph glyph-name="nbspace" unicode="&#xa0;" horiz-adv-x="295" 
 />
    <glyph glyph-name="exclamdown" unicode="&#xa1;" horiz-adv-x="269" 
d="M87 -185l10 439q2 43 38 43q34 0 37 -43l10 -439q2 -21 -11 -36.5t-36 -15.5q-24 0 -36.5 15t-11.5 37zM71 447q0 26 18.5 45t45.5 19q26 0 45 -19t19 -45q0 -27 -19 -45.5t-45 -18.5q-27 0 -45.5 18.5t-18.5 45.5z" />
    <glyph glyph-name="cent" unicode="&#xa2;" horiz-adv-x="426" 
d="M393 432q-16 -32 -48 -16q-38 20 -86 20q-55 0 -86 -39t-31 -105v-80q0 -68 28.5 -105.5t85.5 -37.5q50 0 91 21q15 6 28.5 1t19.5 -19q6 -16 0.5 -29t-18.5 -20q-36 -21 -85 -26v-52q0 -15 -11 -25.5t-26 -10.5t-26 10.5t-11 25.5v51q-82 10 -123 69t-41 151v69
q0 88 42.5 149.5t121.5 73.5v51q0 15 11 26t26 11t26 -11t11 -26v-52q47 -3 85 -26q31 -17 16 -49z" />
    <glyph glyph-name="sterling" unicode="&#xa3;" horiz-adv-x="560" 
d="M521 43q0 -18 -12.5 -30.5t-29.5 -12.5h-398q-17 0 -29.5 12t-12.5 31q0 10 6 18t12 12t20 10.5t20 10.5q63 34 63 128q-1 33 -19 76h-47q-16 0 -27 11t-11 27t11 27t27 11h25q-31 83 -31 141q0 89 60.5 154.5t175.5 65.5q81 0 145 -23q33 -12 33 -41q0 -19 -11 -31
t-30 -12q-2 0 -44 11q-43 10 -87 10q-78 0 -115.5 -40.5t-37.5 -94.5q0 -51 35 -140h158q16 0 27 -11t11 -27t-11 -27t-27 -11h-137q16 -41 16 -76q1 -80 -56 -137h286q17 0 29.5 -12.5t12.5 -29.5z" />
    <glyph glyph-name="currency" unicode="&#xa4;" horiz-adv-x="694" 
d="M62 161l77 77q-50 68 -50 150q0 86 51 151l-78 79q-11 11 -11 27t12 29q12 12 28 12t28 -11l77 -79q67 51 152 51q83 0 150 -51l77 78q11 11 27.5 11t29.5 -13q11 -11 11 -27.5t-11 -27.5l-77 -77q52 -66 52 -152q0 -83 -51 -152l76 -75q12 -11 11.5 -27.5t-11.5 -27.5
q-13 -13 -29 -13.5t-28 11.5l-76 76q-67 -51 -151 -51t-153 51l-76 -76q-12 -12 -28 -11.5t-28 11.5q-13 12 -13 28.5t12 28.5zM156 388q0 -80 56 -136t136 -56q79 0 135 56t56 136t-55.5 135.5t-135.5 55.5t-136 -56t-56 -135z" />
    <glyph glyph-name="yen" unicode="&#xa5;" horiz-adv-x="560" 
d="M532 695q0 -8 -5 -18q-46 -108 -124 -263h67q16 0 27 -11t11 -26q0 -16 -11 -27t-27 -11h-107l-38 -72v-22h145q16 0 27 -11t11 -27q0 -15 -11 -26t-27 -11h-145v-134q0 -19 -13 -32t-32 -13t-32 13t-13 32v134h-146q-15 0 -26 11t-11 26q0 16 11 27t26 11h146v22l-39 72
h-107q-15 0 -26 11t-11 27q0 15 11 26t26 11h69q-78 151 -125 261q-4 8 -4 19q0 19 14 31.5t33 12.5q26 0 39 -27q59 -141 166 -342q101 190 167 342q13 27 38 27q18 0 32 -12.5t14 -30.5z" />
    <glyph glyph-name="brokenbar" unicode="&#xa6;" horiz-adv-x="236" 
d="M163 473q0 -19 -13 -32t-32 -13t-32 13t-13 32v307q0 18 13 31t32 13t32 -13t13 -31v-307zM163 -51q0 -19 -13 -32t-32 -13t-32 13t-13 32v306q0 19 13 32t32 13t32 -13t13 -32v-306z" />
    <glyph glyph-name="section" unicode="&#xa7;" horiz-adv-x="544" 
d="M497 257q0 -91 -66 -140q39 -41 39 -103q0 -94 -62 -142.5t-151 -48.5q-66 0 -127 21q-38 14 -38 42q0 16 10.5 28t27.5 12q6 0 11.5 -2l16 -6t19.5 -7q42 -12 76 -12q60 0 97 27t37 80q0 34 -19.5 53t-59.5 35q-5 2 -80.5 25t-102.5 38q-75 43 -75 133q0 88 65 140
q-38 40 -38 103q0 94 62 142t150 48q74 0 127 -20q39 -14 39 -41q0 -17 -10.5 -29t-27.5 -12q-6 0 -12 2t-15.5 5.5t-18.5 6.5q-41 13 -78 13q-59 0 -96 -27t-37 -80q0 -34 19.5 -53.5t59.5 -33.5q12 -4 84.5 -26.5t98.5 -37.5q75 -44 75 -133zM415 251q0 11 -2 20.5
t-7.5 18t-9.5 14t-15 12t-15.5 9.5t-19.5 8.5t-19.5 7t-23 7t-22.5 6.5q-79 26 -99 36q-50 -33 -50 -94q0 -18 7 -32.5t15.5 -23.5t27.5 -18t30.5 -13t37.5 -12q11 -3 16 -5q76 -23 99 -35q50 33 50 94z" />
    <glyph glyph-name="dieresis" unicode="&#xa8;" horiz-adv-x="530" 
d="M133 670q0 21 14.5 35.5t35.5 14.5t35.5 -14.5t14.5 -35.5t-14.5 -35t-35.5 -14t-35.5 14t-14.5 35zM297 670q0 21 14 35.5t35 14.5t35.5 -14.5t14.5 -35.5t-14.5 -35t-35.5 -14t-35 14t-14 35z" />
    <glyph glyph-name="copyright" unicode="&#xa9;" horiz-adv-x="881" 
d="M814 364q0 -154 -109.5 -263.5t-264.5 -109.5q-154 0 -263.5 109.5t-109.5 263.5q0 155 109.5 264.5t263.5 109.5t264 -110t110 -264zM748 364q0 128 -90.5 218.5t-217.5 90.5t-217.5 -90.5t-90.5 -218.5t90 -218t218 -90t218 90t90 218zM556 205q0 -20 -19 -28
q-44 -20 -98 -20q-79 0 -119.5 50t-40.5 131v53q0 76 42.5 128.5t117.5 52.5q55 0 97 -19q20 -10 20 -28q0 -13 -9 -23t-22 -10q-7 0 -14 3q-31 14 -69 14q-44 0 -71 -32t-27 -86v-53q0 -118 97 -118q41 0 72 15q5 2 13 2q14 0 22 -9.5t8 -22.5z" />
    <glyph glyph-name="ordfeminine" unicode="&#xaa;" horiz-adv-x="428" 
d="M391 325q0 -32 -37 -32q-26 0 -43 17q-11 8 -16 23q-38 -40 -114 -40q-72 0 -108 33.5t-36 87.5v7q0 54 38 86.5t114 32.5h91v19q0 51 -17 74t-65 23t-83 -21q-15 -7 -27.5 -2.5t-18.5 15.5q-12 26 12 41q48 29 121 29q85 0 119 -40.5t34 -125.5v-152q0 -23 5 -33t17 -17
q14 -8 14 -25zM280 435v47h-84q-85 0 -85 -62v-7q0 -62 82 -62q87 0 87 84z" />
    <glyph glyph-name="guillemotleft" unicode="&#xab;" horiz-adv-x="618" 
d="M559 106q12 -12 12 -28q0 -17 -13 -30q-12 -12 -29 -12q-16 0 -29 13l-188 195q-12 14 -12 28t12 28l188 194q12 13 30 13q15 0 28 -11q13 -13 13 -30t-12 -29l-161 -165zM292 106q11 -13 11 -28q0 -18 -13 -30q-12 -12 -28 -12t-29 13l-188 195q-12 12 -12 28t12 28
l188 194q12 13 30 13q14 0 27 -11q13 -12 13 -30q0 -16 -11 -29l-161 -165z" />
    <glyph glyph-name="logicalnot" unicode="&#xac;" horiz-adv-x="570" 
d="M510 249q0 -17 -12.5 -29t-29.5 -12q-16 0 -28.5 12t-12.5 29v91h-326q-17 0 -29 12t-12 29t12 29t29 12h367q17 0 29.5 -12t12.5 -29v-132z" />
    <glyph glyph-name="registered" unicode="&#xae;" horiz-adv-x="881" 
d="M814 364q0 -154 -109.5 -263.5t-264.5 -109.5q-154 0 -263.5 109.5t-109.5 263.5q0 155 109.5 264.5t263.5 109.5t264 -110t110 -264zM748 364q0 128 -90.5 218.5t-217.5 90.5t-217.5 -90.5t-90.5 -218.5t90 -218t218 -90t218 90t90 218zM579 434q0 -34 -19.5 -60.5
t-57.5 -37.5l68 -128q4 -8 4 -14q0 -14 -10 -23.5t-24 -9.5q-20 0 -29 19l-76 147h-62v-133q0 -14 -9.5 -23.5t-23.5 -9.5q-13 0 -22.5 9.5t-9.5 23.5v341q0 14 9.5 23.5t22.5 9.5h110q66 0 97.5 -31t31.5 -76v-27zM513 437v21q0 21 -15 36.5t-51 15.5h-74v-126h71
q37 0 53 16t16 37z" />
    <glyph glyph-name="macron" unicode="&#xaf;" horiz-adv-x="530" 
d="M402 678q0 -16 -11 -27t-27 -11h-198q-16 0 -27 11t-11 27t11 27t27 11h198q16 0 27 -11t11 -27z" />
    <glyph glyph-name="macron" unicode="&#x2c9;" horiz-adv-x="530" 
d="M402 678q0 -16 -11 -27t-27 -11h-198q-16 0 -27 11t-11 27t11 27t27 11h198q16 0 27 -11t11 -27z" />
    <glyph glyph-name="degree" unicode="&#xb0;" horiz-adv-x="406" 
d="M371 571q0 -70 -49 -118.5t-119 -48.5t-119 48.5t-49 118.5t49 118.5t119 48.5t119 -48.5t49 -118.5zM300 571q0 40 -28.5 68t-68.5 28t-68.5 -28t-28.5 -68t28.5 -68.5t68.5 -28.5t68.5 28.5t28.5 68.5z" />
    <glyph glyph-name="plusminus" unicode="&#xb1;" horiz-adv-x="550" 
d="M488 391q0 -17 -12 -29t-29 -12h-131v-131q0 -17 -12 -29.5t-29 -12.5t-29 12.5t-12 29.5v131h-131q-17 0 -29 12t-12 29t12 29t29 12h131v131q0 17 12 29t29 12t29 -12t12 -29v-131h131q17 0 29 -12t12 -29zM488 41q0 -17 -12 -29t-29 -12h-344q-17 0 -29 12t-12 29
t12 29t29 12h344q17 0 29 -12t12 -29z" />
    <glyph glyph-name="twosuperior" unicode="&#xb2;" horiz-adv-x="450" 
d="M354 326q0 -11 -8 -19t-19 -8h-204q-12 0 -19.5 7.5t-7.5 19.5q0 28 8.5 52t25.5 43.5t28.5 30.5t31.5 26q7 6 29.5 22.5t31 24.5t22 22.5t19 29t5.5 30.5q0 31 -18 51.5t-54 20.5q-30 0 -56 -13q-7 -3 -14.5 -9t-13 -9t-12.5 -3q-11 0 -19 8t-8 19q0 12 10 21
q45 39 115 39q63 0 95 -37t32 -88q0 -33 -15.5 -61t-32.5 -44t-47 -38q-64 -48 -81 -69q-16 -20 -21 -41h170q11 0 19 -8.5t8 -19.5z" />
    <glyph glyph-name="threesuperior" unicode="&#xb3;" horiz-adv-x="450" 
d="M354 417q0 -51 -36 -87t-101 -36q-72 0 -112 40q-9 9 -9 21q0 11 7 18t18 7q5 0 8.5 -2t10.5 -7.5t15 -10.5q24 -16 60 -16q40 0 61.5 22t21.5 56q0 69 -89 71q-28 0 -28 25t29 25q82 7 82 67q0 30 -16.5 50t-54.5 20q-31 0 -57 -14q-5 -3 -12.5 -9.5t-12 -9t-10.5 -2.5
q-9 0 -16.5 7.5t-7.5 18.5t12 22q36 38 106 38q63 0 92.5 -35t29.5 -80q0 -68 -61 -95q70 -25 70 -104z" />
    <glyph glyph-name="acute" unicode="&#xb4;" horiz-adv-x="530" 
d="M321 798q20 -11 20 -31q0 -11 -6 -19l-81 -134q-12 -20 -30 -20q-8 0 -16 5q-19 9 -19 29q0 6 4 16l75 138q10 21 33 21q11 0 20 -5z" />
    <glyph glyph-name="mu" unicode="&#xb5;" horiz-adv-x="547" 
d="M511 32q0 -19 -12.5 -28.5t-31.5 -9.5q-29 0 -53 21q-16 14 -25 37q-55 -58 -154 -58q-49 0 -77 25v-173q0 -18 -12.5 -31t-31.5 -13q-17 0 -30 13t-13 31v621q0 19 12.5 31.5t30.5 12.5q19 0 31.5 -12.5t12.5 -31.5v-282q0 -54 20.5 -81t74.5 -27q86 0 121 67v323
q0 19 13 31.5t31 12.5t31 -13t13 -31v-343q0 -29 7 -41.5t24 -20.5q18 -11 18 -30z" />
    <glyph glyph-name="mu" unicode="&#x3bc;" horiz-adv-x="547" 
d="M511 32q0 -19 -12.5 -28.5t-31.5 -9.5q-29 0 -53 21q-16 14 -25 37q-55 -58 -154 -58q-49 0 -77 25v-173q0 -18 -12.5 -31t-31.5 -13q-17 0 -30 13t-13 31v621q0 19 12.5 31.5t30.5 12.5q19 0 31.5 -12.5t12.5 -31.5v-282q0 -54 20.5 -81t74.5 -27q86 0 121 67v323
q0 19 13 31.5t31 12.5t31 -13t13 -31v-343q0 -29 7 -41.5t24 -20.5q18 -11 18 -30z" />
    <glyph glyph-name="paragraph" unicode="&#xb6;" horiz-adv-x="651" 
d="M616 693q0 -16 -11.5 -27.5t-27.5 -11.5h-41v-770q0 -19 -13.5 -32t-31.5 -13q-19 0 -32 13t-13 32v770h-112v-770q0 -19 -13 -32t-32 -13q-18 0 -31.5 13t-13.5 32v469q-77 4 -130.5 58.5t-53.5 130.5q0 79 56.5 134.5t136.5 55.5h324q17 0 28 -11t11 -28z" />
    <glyph glyph-name="periodcentered" unicode="&#xb7;" horiz-adv-x="243" 
d="M177 295q0 -25 -17 -42t-42 -17q-24 0 -41 17t-17 42t17 41.5t41 16.5q25 0 42 -16.5t17 -41.5z" />
    <glyph glyph-name="periodcentered" unicode="&#x2219;" horiz-adv-x="243" 
d="M177 295q0 -25 -17 -42t-42 -17q-24 0 -41 17t-17 42t17 41.5t41 16.5q25 0 42 -16.5t17 -41.5z" />
    <glyph glyph-name="cedilla" unicode="&#xb8;" horiz-adv-x="530" 
d="M357 -118q0 -38 -31 -60.5t-86 -22.5q-67 0 -67 26q0 19 48 19q69 0 69 41q0 19 -14 27.5t-44 10.5q-20 2 -28 8t-7 21l4 52h47v-42q109 0 109 -80z" />
    <glyph glyph-name="onesuperior" unicode="&#xb9;" horiz-adv-x="450" 
d="M362 326q0 -11 -8 -19t-19 -8h-206q-11 0 -19.5 8t-8.5 19t8.5 19t19.5 8h95v301l-96 -66q-9 -6 -20 -4t-18 12q-6 9 -3.5 20t12.5 17l136 93q7 6 17 6q12 0 20 -8.5t8 -19.5v-351h55q11 0 19 -8t8 -19z" />
    <glyph glyph-name="ordmasculine" unicode="&#xba;" horiz-adv-x="440" 
d="M386 463q0 -75 -41 -122.5t-125 -47.5q-83 0 -124.5 47.5t-41.5 122.5v84q0 75 41.5 123t124.5 48q84 0 125 -48t41 -123v-84zM312 463v84q0 102 -92 102q-91 0 -91 -102v-84q0 -102 91 -102q92 0 92 102z" />
    <glyph glyph-name="guillemotright" unicode="&#xbb;" horiz-adv-x="618" 
d="M585 272q0 -16 -12 -28l-188 -195q-13 -13 -29 -13t-28 12q-13 12 -13 30q0 15 11 28l161 166l-161 165q-11 13 -11 29q0 18 13 30q13 11 27 11q18 0 30 -13l188 -194q12 -12 12 -28zM318 272q0 -14 -12 -28l-188 -195q-13 -13 -29 -13q-17 0 -29 12q-13 12 -13 29t12 29
l160 166l-160 165q-12 12 -12 29t13 30q13 11 28 11q18 0 30 -13l188 -194q12 -14 12 -28z" />
    <glyph glyph-name="onequarter" unicode="&#xbc;" horiz-adv-x="450" 
d="M349 357q0 -11 -7.5 -18t-17.5 -7h-191q-11 0 -18 7t-7 18t7 18t18 7h88v277l-88 -60q-9 -6 -19.5 -3.5t-15.5 10.5q-14 21 7 35l126 85q7 6 16 6q11 0 18.5 -8t7.5 -18v-324h51q10 0 17.5 -7t7.5 -18zM410 256q0 -10 -7 -17.5t-18 -7.5h-320q-11 0 -18 7.5t-7 17.5
t7 17.5t18 7.5h320q11 0 18 -7.5t7 -17.5zM341 -110q0 -11 -7 -18.5t-17 -7.5h-25v-54q0 -10 -8 -18t-18 -8q-11 0 -18.5 7.5t-7.5 18.5v54h-128q-11 0 -18 7t-7 19q0 5 3 11l118 273q5 10 14.5 13.5t19.5 -0.5t14.5 -14t-0.5 -20l-104 -239h88v71q0 11 7.5 18t18.5 7
t18.5 -7.5t7.5 -17.5v-71h25q10 0 17 -7t7 -17z" />
    <glyph glyph-name="onehalf" unicode="&#xbd;" horiz-adv-x="450" 
d="M349 357q0 -11 -7.5 -18t-17.5 -7h-191q-11 0 -18 7t-7 18t7 18t18 7h88v277l-88 -60q-9 -6 -19.5 -3.5t-15.5 10.5q-14 21 7 35l126 85q7 6 16 6q11 0 18.5 -8t7.5 -18v-324h51q10 0 17.5 -7t7.5 -18zM410 256q0 -10 -7 -17.5t-18 -7.5h-320q-11 0 -18 7.5t-7 17.5
t7 17.5t18 7.5h320q11 0 18 -7.5t7 -17.5zM346 -185q0 -11 -7 -18.5t-18 -7.5h-189q-11 0 -18 7.5t-7 18.5q0 33 17 63.5t30 42.5t40 34q8 7 27.5 21.5t28.5 22.5t21.5 20.5t17.5 26t5 28.5q0 29 -17 48t-50 19q-28 0 -52 -12q-7 -3 -18 -11.5t-18 -8.5q-11 0 -18.5 7.5
t-7.5 17.5q0 13 9 19q40 37 107 37q57 0 87 -34.5t30 -81.5q0 -30 -14.5 -56.5t-30 -41t-43.5 -35.5q-32 -23 -43.5 -32t-28.5 -29t-22 -40h157q11 0 18 -7t7 -18z" />
    <glyph glyph-name="threequarters" unicode="&#xbe;" horiz-adv-x="450" 
d="M351 440q0 -47 -33.5 -80t-93.5 -33q-67 0 -104 37q-8 7 -8 19q0 10 6.5 17t16.5 7q5 0 8.5 -2t10.5 -8t13 -10q22 -14 55 -14q37 0 56.5 20t19.5 52q0 64 -82 66q-25 0 -25 23q0 24 26 24q31 1 54 15.5t23 45.5q0 28 -16 46.5t-51 18.5q-30 0 -52 -14q-5 -3 -11.5 -8
t-11 -7.5t-9.5 -2.5q-22 0 -22 23q0 12 10 21q35 35 98 35q58 0 85.5 -32t27.5 -74q0 -62 -56 -88q65 -23 65 -97zM410 256q0 -10 -7 -17.5t-18 -7.5h-320q-11 0 -18 7.5t-7 17.5t7 17.5t18 7.5h320q11 0 18 -7.5t7 -17.5zM343 -110q0 -11 -7 -18.5t-18 -7.5h-25v-54
q0 -10 -7.5 -18t-18.5 -8q-10 0 -17.5 7.5t-7.5 18.5v54h-128q-11 0 -18.5 7t-7.5 19q0 3 4 11l118 273q5 10 14.5 13.5t19.5 -0.5q10 -5 14 -14.5t0 -19.5l-104 -239h88v71q0 11 7 18t18 7t18.5 -7.5t7.5 -17.5v-71h25q10 0 17.5 -7t7.5 -17z" />
    <glyph glyph-name="questiondown" unicode="&#xbf;" horiz-adv-x="457" 
d="M56 -48q0 42 15.5 76t36 54.5t58.5 51.5q49 39 62.5 65t13.5 60q0 17 12 28t29 11q18 0 30 -11.5t12 -30.5q0 -49 -17 -84t-70 -78q-37 -30 -52 -44t-27.5 -37.5t-12.5 -53.5q0 -58 35 -86.5t83 -28.5q73 0 117 44q13 8 24 8q19 0 30.5 -12t11.5 -28q0 -24 -37 -50
q-62 -42 -154 -42q-49 0 -92.5 18t-75.5 62.5t-32 107.5zM217 447q0 26 19.5 45t46.5 19q26 0 44.5 -19t18.5 -45q0 -27 -18.5 -46t-44.5 -19q-27 0 -46.5 19t-19.5 46z" />
    <glyph glyph-name="Agrave" unicode="&#xc0;" horiz-adv-x="567" 
d="M552 46q6 -24 -8.5 -39.5t-35.5 -15.5q-35 0 -44 35q-20 81 -39 144h-286l-39 -144q-9 -35 -42 -35q-20 0 -34.5 15.5t-8.5 39.5q79 316 211 643q20 49 57 49t59 -49q130 -320 210 -643zM402 252q-51 166 -120 341q-69 -175 -120 -341h240zM228 997q9 5 20 5q23 0 33 -21
l75 -138q4 -10 4 -16q0 -20 -19 -29q-8 -5 -16 -5q-18 0 -30 20l-81 134q-6 8 -6 19q0 20 20 31z" />
    <glyph glyph-name="Aacute" unicode="&#xc1;" horiz-adv-x="567" 
d="M552 46q6 -24 -8.5 -39.5t-35.5 -15.5q-35 0 -44 35q-20 81 -39 144h-286l-39 -144q-9 -35 -42 -35q-20 0 -34.5 15.5t-8.5 39.5q79 316 211 643q20 49 57 49t59 -49q130 -320 210 -643zM402 252q-51 166 -120 341q-69 -175 -120 -341h240zM334 997q20 -11 20 -31
q0 -11 -6 -19l-81 -134q-12 -20 -30 -20q-8 0 -16 5q-19 9 -19 29q0 6 4 16l75 138q10 21 33 21q11 0 20 -5z" />
    <glyph glyph-name="Acircumflex" unicode="&#xc2;" horiz-adv-x="567" 
d="M552 46q6 -24 -8.5 -39.5t-35.5 -15.5q-35 0 -44 35q-20 81 -39 144h-286l-39 -144q-9 -35 -42 -35q-20 0 -34.5 15.5t-8.5 39.5q79 316 211 643q20 49 57 49t59 -49q130 -320 210 -643zM402 252q-51 166 -120 341q-69 -175 -120 -341h240zM281 998q16 -1 27 -11
l122 -118q13 -12 13 -26q0 -13 -9 -24q-10 -12 -25 -12q-13 0 -23 9l-105 94l-105 -94q-11 -8 -22 -8q-16 0 -26 13q-9 9 -9 23t13 26l122 117q11 11 27 11z" />
    <glyph glyph-name="Atilde" unicode="&#xc3;" horiz-adv-x="567" 
d="M552 46q6 -24 -8.5 -39.5t-35.5 -15.5q-35 0 -44 35q-20 81 -39 144h-286l-39 -144q-9 -35 -42 -35q-20 0 -34.5 15.5t-8.5 39.5q79 316 211 643q20 49 57 49t59 -49q130 -320 210 -643zM402 252q-51 166 -120 341q-69 -175 -120 -341h240zM445 903q1 -30 -28.5 -50
t-67.5 -21q-31 -1 -70 19.5t-60 20.5q-22 0 -39.5 -15t-29.5 -15q-14 0 -23.5 11.5t-9.5 27.5q-1 30 28.5 50t67.5 21q31 1 70 -19.5t60 -20.5q22 0 39.5 15t29.5 15q13 0 23 -11.5t10 -27.5z" />
    <glyph glyph-name="Adieresis" unicode="&#xc4;" horiz-adv-x="567" 
d="M552 46q6 -24 -8.5 -39.5t-35.5 -15.5q-35 0 -44 35q-20 81 -39 144h-286l-39 -144q-9 -35 -42 -35q-20 0 -34.5 15.5t-8.5 39.5q79 316 211 643q20 49 57 49t59 -49q130 -320 210 -643zM402 252q-51 166 -120 341q-69 -175 -120 -341h240zM151 875q0 21 14.5 35.5
t35.5 14.5t35.5 -14.5t14.5 -35.5t-14.5 -35t-35.5 -14t-35.5 14t-14.5 35zM315 875q0 21 14 35.5t35 14.5t35.5 -14.5t14.5 -35.5t-14.5 -35t-35.5 -14t-35 14t-14 35z" />
    <glyph glyph-name="Aring" unicode="&#xc5;" horiz-adv-x="567" 
d="M552 46q6 -24 -8.5 -39.5t-35.5 -15.5q-35 0 -44 35q-20 81 -39 144h-286l-39 -144q-9 -35 -42 -35q-20 0 -34.5 15.5t-8.5 39.5q79 316 211 643q20 49 57 49t59 -49q130 -320 210 -643zM402 252q-51 166 -120 341q-69 -175 -120 -341h240zM400 891q0 -49 -34 -83
t-83 -34t-83 34t-34 83t34 83t83 34t83 -34t34 -83zM351 891q0 28 -20 48t-48 20t-48 -20t-20 -48t20 -48t48 -20t48 20t20 48z" />
    <glyph glyph-name="AE" unicode="&#xc6;" horiz-adv-x="881" 
d="M843 43q0 -18 -12.5 -30.5t-30.5 -12.5h-326q-17 0 -29.5 12.5t-12.5 30.5v126h-257l-75 -147q-12 -26 -40 -26q-20 0 -33 12.5t-13 31.5q0 11 5 21q151 304 342 625q23 43 65 43h359q18 0 31 -13t13 -30q0 -18 -13 -30.5t-31 -12.5h-263v-237h238q17 0 29 -12.5
t12 -29.5t-12 -29.5t-29 -12.5h-238v-236h278q18 0 30.5 -12.5t12.5 -30.5zM432 251v378q-107 -176 -215 -378h215z" />
    <glyph glyph-name="Ccedilla" unicode="&#xc7;" horiz-adv-x="549" 
d="M510 645q0 -16 -11 -28.5t-31 -13.5q-6 0 -11.5 2.5t-14 8.5l-12.5 9q-37 33 -104 33q-169 0 -169 -234v-116q0 -121 39 -177t125 -56q65 0 112 35q28 20 39 20q17 1 28 -11t11 -28q0 -20 -17 -33q-55 -59 -160 -65v-32q56 0 83 -22t27 -59q0 -38 -31.5 -60.5
t-86.5 -22.5q-68 0 -68 27q0 19 49 19q69 0 69 40q0 34 -58 39q-21 2 -28 8t-6 21l2 44q-219 19 -219 312v119q0 144 62.5 229t196.5 85q111 0 167 -62q17 -13 17 -31z" />
    <glyph glyph-name="Egrave" unicode="&#xc8;" horiz-adv-x="554" 
d="M516 43q0 -18 -12.5 -30.5t-29.5 -12.5h-348q-18 0 -30.5 12.5t-12.5 30.5v643q0 17 12.5 30t30.5 13h333q18 0 31 -13t13 -30q0 -18 -13 -30.5t-31 -12.5h-286v-237h260q17 0 29.5 -12.5t12.5 -29.5t-12.5 -29.5t-29.5 -12.5h-260v-236h301q17 0 29.5 -12.5t12.5 -30.5z
M242 998q9 5 20 5q23 0 33 -21l75 -138q4 -10 4 -16q0 -20 -19 -29q-8 -5 -16 -5q-18 0 -30 20l-81 134q-6 8 -6 19q0 20 20 31z" />
    <glyph glyph-name="Eacute" unicode="&#xc9;" horiz-adv-x="554" 
d="M516 43q0 -18 -12.5 -30.5t-29.5 -12.5h-348q-18 0 -30.5 12.5t-12.5 30.5v643q0 17 12.5 30t30.5 13h333q18 0 31 -13t13 -30q0 -18 -13 -30.5t-31 -12.5h-286v-237h260q17 0 29.5 -12.5t12.5 -29.5t-12.5 -29.5t-29.5 -12.5h-260v-236h301q17 0 29.5 -12.5t12.5 -30.5z
M356 997q20 -11 20 -31q0 -11 -6 -19l-81 -134q-12 -20 -30 -20q-8 0 -16 5q-19 9 -19 29q0 6 4 16l75 138q10 21 33 21q11 0 20 -5z" />
    <glyph glyph-name="Ecircumflex" unicode="&#xca;" horiz-adv-x="554" 
d="M516 43q0 -18 -12.5 -30.5t-29.5 -12.5h-348q-18 0 -30.5 12.5t-12.5 30.5v643q0 17 12.5 30t30.5 13h333q18 0 31 -13t13 -30q0 -18 -13 -30.5t-31 -12.5h-286v-237h260q17 0 29.5 -12.5t12.5 -29.5t-12.5 -29.5t-29.5 -12.5h-260v-236h301q17 0 29.5 -12.5t12.5 -30.5z
M293 998q16 -1 27 -11l122 -118q13 -12 13 -26q0 -13 -9 -24q-10 -12 -25 -12q-13 0 -23 9l-105 94l-105 -94q-11 -8 -22 -8q-16 0 -26 13q-9 9 -9 23t13 26l122 117q11 11 27 11z" />
    <glyph glyph-name="Edieresis" unicode="&#xcb;" horiz-adv-x="554" 
d="M516 43q0 -18 -12.5 -30.5t-29.5 -12.5h-348q-18 0 -30.5 12.5t-12.5 30.5v643q0 17 12.5 30t30.5 13h333q18 0 31 -13t13 -30q0 -18 -13 -30.5t-31 -12.5h-286v-237h260q17 0 29.5 -12.5t12.5 -29.5t-12.5 -29.5t-29.5 -12.5h-260v-236h301q17 0 29.5 -12.5t12.5 -30.5z
M156 875q0 21 14.5 35.5t35.5 14.5t35.5 -14.5t14.5 -35.5t-14.5 -35t-35.5 -14t-35.5 14t-14.5 35zM320 875q0 21 14 35.5t35 14.5t35.5 -14.5t14.5 -35.5t-14.5 -35t-35.5 -14t-35 14t-14 35z" />
    <glyph glyph-name="Igrave" unicode="&#xcc;" horiz-adv-x="256" 
d="M173 36q0 -19 -13 -32t-32 -13t-32 13t-13 32v657q0 18 13 31.5t32 13.5t32 -13.5t13 -31.5v-657zM79 998q9 5 20 5q23 0 33 -21l75 -138q4 -10 4 -16q0 -20 -19 -29q-8 -5 -16 -5q-18 0 -30 20l-81 134q-6 8 -6 19q0 20 20 31z" />
    <glyph glyph-name="Iacute" unicode="&#xcd;" horiz-adv-x="256" 
d="M173 36q0 -19 -13 -32t-32 -13t-32 13t-13 32v657q0 18 13 31.5t32 13.5t32 -13.5t13 -31.5v-657zM182 997q20 -11 20 -31q0 -11 -6 -19l-81 -134q-12 -20 -30 -20q-8 0 -16 5q-19 9 -19 29q0 6 4 16l75 138q10 21 33 21q11 0 20 -5z" />
    <glyph glyph-name="Icircumflex" unicode="&#xce;" horiz-adv-x="256" 
d="M173 36q0 -19 -13 -32t-32 -13t-32 13t-13 32v657q0 18 13 31.5t32 13.5t32 -13.5t13 -31.5v-657zM129 998q16 -1 27 -11l122 -118q13 -12 13 -26q0 -13 -9 -24q-10 -12 -25 -12q-13 0 -23 9l-105 94l-105 -94q-11 -8 -22 -8q-16 0 -26 13q-9 9 -9 23t13 26l122 117
q11 11 27 11z" />
    <glyph glyph-name="Idieresis" unicode="&#xcf;" horiz-adv-x="256" 
d="M173 36q0 -19 -13 -32t-32 -13t-32 13t-13 32v657q0 18 13 31.5t32 13.5t32 -13.5t13 -31.5v-657zM-3 875q0 21 14.5 35.5t35.5 14.5t35.5 -14.5t14.5 -35.5t-14.5 -35t-35.5 -14t-35.5 14t-14.5 35zM161 875q0 21 14 35.5t35 14.5t35.5 -14.5t14.5 -35.5t-14.5 -35
t-35.5 -14t-35 14t-14 35z" />
    <glyph glyph-name="Eth" unicode="&#xd0;" horiz-adv-x="664" 
d="M597 271q0 -37 -5 -70.5t-21.5 -71.5t-43.5 -65.5t-75 -45.5t-112 -18h-195q-19 0 -32 13t-13 32v271h-44q-18 0 -30 12.5t-12 29.5t12 29.5t30 12.5h44v284q0 18 13 31.5t32 13.5h195q64 0 112 -18t75 -45.5t43.5 -66t21.5 -71.5t5 -71v-186zM507 271v185q0 39 -7 69.5
t-24.5 58.5t-53 43.5t-87.5 15.5h-145v-243h99q17 0 29.5 -12.5t12.5 -29.5t-12.5 -29.5t-29.5 -12.5h-99v-232h145q52 0 87.5 15.5t53 44t24.5 58.5t7 69z" />
    <glyph glyph-name="Ntilde" unicode="&#xd1;" horiz-adv-x="668" 
d="M585 33q0 -18 -12 -30t-32 -12q-30 0 -43 22l-332 539v-519q0 -17 -12.5 -29.5t-29.5 -12.5t-29 12.5t-12 29.5v663q0 18 12 30t32 12q30 0 44 -25l331 -537v520q0 17 12.5 29.5t29.5 12.5t29 -12.5t12 -29.5v-663zM496 903q1 -30 -28.5 -50t-67.5 -21q-31 -1 -70 19.5
t-60 20.5q-22 0 -39.5 -15t-29.5 -15q-14 0 -23.5 11.5t-9.5 27.5q-1 30 28.5 50t67.5 21q31 1 70 -19.5t60 -20.5q22 0 39.5 15t29.5 15q13 0 23 -11.5t10 -27.5z" />
    <glyph glyph-name="Ograve" unicode="&#xd2;" 
d="M566 261q0 -54 -13 -100t-41 -85.5t-78 -62t-117 -22.5q-68 0 -118 22.5t-78 62t-41 85.5t-13 100v207q0 54 13 100t41 85.5t78 62t118 22.5q67 0 117 -22.5t78 -62t41 -85.5t13 -100v-207zM476 261v207q0 187 -159 187q-160 0 -160 -187v-207q0 -188 160 -188
q159 0 159 188zM275 998q9 5 20 5q23 0 33 -21l75 -138q4 -10 4 -16q0 -20 -19 -29q-8 -5 -16 -5q-18 0 -30 20l-81 134q-6 8 -6 19q0 20 20 31z" />
    <glyph glyph-name="Oacute" unicode="&#xd3;" 
d="M566 261q0 -54 -13 -100t-41 -85.5t-78 -62t-117 -22.5q-68 0 -118 22.5t-78 62t-41 85.5t-13 100v207q0 54 13 100t41 85.5t78 62t118 22.5q67 0 117 -22.5t78 -62t41 -85.5t13 -100v-207zM476 261v207q0 187 -159 187q-160 0 -160 -187v-207q0 -188 160 -188
q159 0 159 188zM363 997q20 -11 20 -31q0 -11 -6 -19l-81 -134q-12 -20 -30 -20q-8 0 -16 5q-19 9 -19 29q0 6 4 16l75 138q10 21 33 21q11 0 20 -5z" />
    <glyph glyph-name="Ocircumflex" unicode="&#xd4;" 
d="M566 261q0 -54 -13 -100t-41 -85.5t-78 -62t-117 -22.5q-68 0 -118 22.5t-78 62t-41 85.5t-13 100v207q0 54 13 100t41 85.5t78 62t118 22.5q67 0 117 -22.5t78 -62t41 -85.5t13 -100v-207zM476 261v207q0 187 -159 187q-160 0 -160 -187v-207q0 -188 160 -188
q159 0 159 188zM315 998q16 -1 27 -11l122 -118q13 -12 13 -26q0 -13 -9 -24q-10 -12 -25 -12q-13 0 -23 9l-105 94l-105 -94q-11 -8 -22 -8q-16 0 -26 13q-9 9 -9 23t13 26l122 117q11 11 27 11z" />
    <glyph glyph-name="Otilde" unicode="&#xd5;" 
d="M566 261q0 -54 -13 -100t-41 -85.5t-78 -62t-117 -22.5q-68 0 -118 22.5t-78 62t-41 85.5t-13 100v207q0 54 13 100t41 85.5t78 62t118 22.5q67 0 117 -22.5t78 -62t41 -85.5t13 -100v-207zM476 261v207q0 187 -159 187q-160 0 -160 -187v-207q0 -188 160 -188
q159 0 159 188zM477 903q1 -30 -28.5 -50t-67.5 -21q-31 -1 -70 19.5t-60 20.5q-22 0 -39.5 -15t-29.5 -15q-14 0 -23.5 11.5t-9.5 27.5q-1 30 28.5 50t67.5 21q31 1 70 -19.5t60 -20.5q22 0 39.5 15t29.5 15q13 0 23 -11.5t10 -27.5z" />
    <glyph glyph-name="Odieresis" unicode="&#xd6;" 
d="M566 261q0 -54 -13 -100t-41 -85.5t-78 -62t-117 -22.5q-68 0 -118 22.5t-78 62t-41 85.5t-13 100v207q0 54 13 100t41 85.5t78 62t118 22.5q67 0 117 -22.5t78 -62t41 -85.5t13 -100v-207zM476 261v207q0 187 -159 187q-160 0 -160 -187v-207q0 -188 160 -188
q159 0 159 188zM182 875q0 21 14.5 35.5t35.5 14.5t35.5 -14.5t14.5 -35.5t-14.5 -35t-35.5 -14t-35.5 14t-14.5 35zM346 875q0 21 14 35.5t35 14.5t35.5 -14.5t14.5 -35.5t-14.5 -35t-35.5 -14t-35 14t-14 35z" />
    <glyph glyph-name="multiply" unicode="&#xd7;" horiz-adv-x="443" 
d="M373 126q-12 -12 -29 -12t-29 12l-93 93l-94 -93q-12 -12 -28.5 -12t-29.5 12q-12 11 -12 28.5t12 29.5l94 93l-94 93q-12 13 -12 29.5t12 28.5q13 13 29.5 13t28.5 -13l94 -93l93 93q12 13 29 13t29 -13q12 -12 12 -28.5t-12 -29.5l-93 -93l93 -93q12 -12 12 -29.5
t-12 -28.5z" />
    <glyph glyph-name="Oslash" unicode="&#xd8;" 
d="M566 261q0 -54 -13 -100t-41 -85.5t-78 -62t-117 -22.5q-71 0 -123 26l-16 -37q-4 -11 -16 -15.5t-23 0.5t-15.5 16.5t0.5 22.5l20 46q-77 72 -77 211v207q0 54 13 100t41 85.5t78 62t118 22.5q70 0 122 -26l16 35q5 11 16.5 15.5t23.5 -0.5q11 -5 15 -16.5t-1 -22.5
l-19 -45q76 -72 76 -210v-207zM405 634q-35 21 -88 21q-160 0 -160 -187v-207q0 -73 31 -112zM476 261v207q0 71 -30 111l-217 -485q33 -21 88 -21q159 0 159 188z" />
    <glyph glyph-name="Ugrave" unicode="&#xd9;" 
d="M566 237q0 -108 -63.5 -177t-185.5 -69q-124 0 -187 69t-63 177v456q0 19 13 32t31 13q19 0 32 -13t13 -32v-453q0 -74 38.5 -121.5t122.5 -47.5q83 0 121 47t38 122v453q0 18 13.5 31.5t31.5 13.5q19 0 32 -13.5t13 -31.5v-456zM260 998q9 5 20 5q23 0 33 -21l75 -138
q4 -10 4 -16q0 -20 -19 -29q-8 -5 -16 -5q-18 0 -30 20l-81 134q-6 8 -6 19q0 20 20 31z" />
    <glyph glyph-name="Uacute" unicode="&#xda;" 
d="M566 237q0 -108 -63.5 -177t-185.5 -69q-124 0 -187 69t-63 177v456q0 19 13 32t31 13q19 0 32 -13t13 -32v-453q0 -74 38.5 -121.5t122.5 -47.5q83 0 121 47t38 122v453q0 18 13.5 31.5t31.5 13.5q19 0 32 -13.5t13 -31.5v-456zM377 997q20 -11 20 -31q0 -11 -6 -19
l-81 -134q-12 -20 -30 -20q-8 0 -16 5q-19 9 -19 29q0 6 4 16l75 138q10 21 33 21q11 0 20 -5z" />
    <glyph glyph-name="Ucircumflex" unicode="&#xdb;" 
d="M566 237q0 -108 -63.5 -177t-185.5 -69q-124 0 -187 69t-63 177v456q0 19 13 32t31 13q19 0 32 -13t13 -32v-453q0 -74 38.5 -121.5t122.5 -47.5q83 0 121 47t38 122v453q0 18 13.5 31.5t31.5 13.5q19 0 32 -13.5t13 -31.5v-456zM313 998q16 -1 27 -11l122 -118
q13 -12 13 -26q0 -13 -9 -24q-10 -12 -25 -12q-13 0 -23 9l-105 94l-105 -94q-11 -8 -22 -8q-16 0 -26 13q-9 9 -9 23t13 26l122 117q11 11 27 11z" />
    <glyph glyph-name="Udieresis" unicode="&#xdc;" 
d="M566 237q0 -108 -63.5 -177t-185.5 -69q-124 0 -187 69t-63 177v456q0 19 13 32t31 13q19 0 32 -13t13 -32v-453q0 -74 38.5 -121.5t122.5 -47.5q83 0 121 47t38 122v453q0 18 13.5 31.5t31.5 13.5q19 0 32 -13.5t13 -31.5v-456zM183 875q0 21 14.5 35.5t35.5 14.5
t35.5 -14.5t14.5 -35.5t-14.5 -35t-35.5 -14t-35.5 14t-14.5 35zM347 875q0 21 14 35.5t35 14.5t35.5 -14.5t14.5 -35.5t-14.5 -35t-35.5 -14t-35 14t-14 35z" />
    <glyph glyph-name="Yacute" unicode="&#xdd;" horiz-adv-x="503" 
d="M503 695q0 -6 -4 -18q-80 -183 -203 -410v-231q0 -19 -13 -32t-32 -13t-32 13t-13 32v231q-116 212 -202 408q-4 8 -4 19q0 19 14 31.5t33 12.5q26 0 39 -27q59 -141 166 -342q95 176 167 342q13 27 38 27q18 0 32 -12.5t14 -30.5zM311 998q20 -11 20 -31q0 -11 -6 -19
l-81 -134q-12 -20 -30 -20q-8 0 -16 5q-19 9 -19 29q0 6 4 16l75 138q10 21 33 21q11 0 20 -5z" />
    <glyph glyph-name="Thorn" unicode="&#xde;" horiz-adv-x="591" 
d="M549 314q0 -86 -58.5 -139t-161.5 -53h-156v-253q0 -19 -13 -32t-32 -13t-32 13t-13 32v898q0 19 13 32t32 13t32 -13t13 -32v-205h146q118 0 174 -58t56 -139v-51zM460 316v48q0 46 -34 79.5t-113 33.5h-140v-273h153q67 0 100.5 31.5t33.5 80.5z" />
    <glyph glyph-name="germandbls" unicode="&#xdf;" horiz-adv-x="570" 
d="M515 164q0 -83 -55.5 -126t-143.5 -43q-64 0 -107 16q-16 5 -22 20.5t0 29.5q11 25 36 21q48 -12 94 -12q114 0 114 93q0 20 -7 35t-16.5 24.5t-27.5 18.5t-31 13.5t-37.5 12t-37.5 12.5q-82 29 -82 97q0 33 18.5 54t45 31l52.5 20.5t44.5 31t18.5 52.5q0 43 -25 64
t-67 21q-121 0 -121 -171v-498q0 -19 -13 -31.5t-31 -12.5t-30.5 12.5t-12.5 31.5v498q0 125 56 187t155 62q77 0 124.5 -41t47.5 -118q0 -36 -13 -62t-33 -39t-42.5 -23.5t-42.5 -16.5t-33 -16.5t-13 -25.5q0 -22 20 -34t58 -22q37 -10 60.5 -19.5t49 -28t38 -48
t12.5 -70.5z" />
    <glyph glyph-name="agrave" unicode="&#xe0;" horiz-adv-x="505" 
d="M467 32q0 -38 -43 -38q-31 0 -52 21q-13 10 -20 30q-47 -51 -140 -51q-88 0 -131.5 40.5t-43.5 106.5v8q0 66 46.5 105.5t137.5 39.5h114v24q0 64 -21.5 92t-81.5 28q-57 0 -102 -25q-21 -11 -39.5 0t-18.5 29.5t18 33.5q56 35 147 35q103 0 144 -48.5t41 -152.5v-186
q0 -28 6.5 -41t21.5 -22q17 -9 17 -29zM335 167v59h-105q-106 0 -106 -78v-8q0 -78 103 -78q51 0 79.5 26.5t28.5 78.5zM183 798q9 5 20 5q23 0 33 -21l75 -138q4 -10 4 -16q0 -20 -19 -29q-8 -5 -16 -5q-18 0 -30 20l-81 134q-6 8 -6 19q0 20 20 31z" />
    <glyph glyph-name="aacute" unicode="&#xe1;" horiz-adv-x="505" 
d="M467 32q0 -38 -43 -38q-31 0 -52 21q-13 10 -20 30q-47 -51 -140 -51q-88 0 -131.5 40.5t-43.5 106.5v8q0 66 46.5 105.5t137.5 39.5h114v24q0 64 -21.5 92t-81.5 28q-57 0 -102 -25q-21 -11 -39.5 0t-18.5 29.5t18 33.5q56 35 147 35q103 0 144 -48.5t41 -152.5v-186
q0 -28 6.5 -41t21.5 -22q17 -9 17 -29zM335 167v59h-105q-106 0 -106 -78v-8q0 -78 103 -78q51 0 79.5 26.5t28.5 78.5zM303 798q20 -11 20 -31q0 -11 -6 -19l-81 -134q-12 -20 -30 -20q-8 0 -16 5q-19 9 -19 29q0 6 4 16l75 138q10 21 33 21q11 0 20 -5z" />
    <glyph glyph-name="acircumflex" unicode="&#xe2;" horiz-adv-x="505" 
d="M467 32q0 -38 -43 -38q-31 0 -52 21q-13 10 -20 30q-47 -51 -140 -51q-88 0 -131.5 40.5t-43.5 106.5v8q0 66 46.5 105.5t137.5 39.5h114v24q0 64 -21.5 92t-81.5 28q-57 0 -102 -25q-21 -11 -39.5 0t-18.5 29.5t18 33.5q56 35 147 35q103 0 144 -48.5t41 -152.5v-186
q0 -28 6.5 -41t21.5 -22q17 -9 17 -29zM335 167v59h-105q-106 0 -106 -78v-8q0 -78 103 -78q51 0 79.5 26.5t28.5 78.5zM241 798q16 -1 27 -11l122 -118q13 -12 13 -26q0 -13 -9 -24q-10 -12 -25 -12q-13 0 -23 9l-105 94l-105 -94q-11 -8 -22 -8q-16 0 -26 13q-9 9 -9 23
t13 26l122 117q11 11 27 11z" />
    <glyph glyph-name="atilde" unicode="&#xe3;" horiz-adv-x="505" 
d="M467 32q0 -38 -43 -38q-31 0 -52 21q-13 10 -20 30q-47 -51 -140 -51q-88 0 -131.5 40.5t-43.5 106.5v8q0 66 46.5 105.5t137.5 39.5h114v24q0 64 -21.5 92t-81.5 28q-57 0 -102 -25q-21 -11 -39.5 0t-18.5 29.5t18 33.5q56 35 147 35q103 0 144 -48.5t41 -152.5v-186
q0 -28 6.5 -41t21.5 -22q17 -9 17 -29zM335 167v59h-105q-106 0 -106 -78v-8q0 -78 103 -78q51 0 79.5 26.5t28.5 78.5zM402 703q1 -30 -28.5 -50t-67.5 -21q-31 -1 -70 19.5t-60 20.5q-22 0 -39.5 -15t-29.5 -15q-14 0 -23.5 11.5t-9.5 27.5q-1 30 28.5 50t67.5 21
q31 1 70 -19.5t60 -20.5q22 0 39.5 15t29.5 15q13 0 23 -11.5t10 -27.5z" />
    <glyph glyph-name="adieresis" unicode="&#xe4;" horiz-adv-x="505" 
d="M467 32q0 -38 -43 -38q-31 0 -52 21q-13 10 -20 30q-47 -51 -140 -51q-88 0 -131.5 40.5t-43.5 106.5v8q0 66 46.5 105.5t137.5 39.5h114v24q0 64 -21.5 92t-81.5 28q-57 0 -102 -25q-21 -11 -39.5 0t-18.5 29.5t18 33.5q56 35 147 35q103 0 144 -48.5t41 -152.5v-186
q0 -28 6.5 -41t21.5 -22q17 -9 17 -29zM335 167v59h-105q-106 0 -106 -78v-8q0 -78 103 -78q51 0 79.5 26.5t28.5 78.5zM110 670q0 21 14.5 35.5t35.5 14.5t35.5 -14.5t14.5 -35.5t-14.5 -35t-35.5 -14t-35.5 14t-14.5 35zM274 670q0 21 14 35.5t35 14.5t35.5 -14.5
t14.5 -35.5t-14.5 -35t-35.5 -14t-35 14t-14 35z" />
    <glyph glyph-name="aring" unicode="&#xe5;" horiz-adv-x="505" 
d="M467 32q0 -38 -43 -38q-31 0 -52 21q-13 10 -20 30q-47 -51 -140 -51q-88 0 -131.5 40.5t-43.5 106.5v8q0 66 46.5 105.5t137.5 39.5h114v24q0 64 -21.5 92t-81.5 28q-57 0 -102 -25q-21 -11 -39.5 0t-18.5 29.5t18 33.5q56 35 147 35q103 0 144 -48.5t41 -152.5v-186
q0 -28 6.5 -41t21.5 -22q17 -9 17 -29zM335 167v59h-105q-106 0 -106 -78v-8q0 -78 103 -78q51 0 79.5 26.5t28.5 78.5zM353 691q0 -49 -34 -83t-83 -34t-83 34t-34 83t34 83t83 34t83 -34t34 -83zM304 691q0 28 -20 48t-48 20t-48 -20t-20 -48t20 -48t48 -20t48 20t20 48z
" />
    <glyph glyph-name="ae" unicode="&#xe6;" horiz-adv-x="775" 
d="M729 260q0 -15 -10 -24.5t-24 -9.5h-273v-27q2 -130 114 -130q70 0 124 28q14 7 28 1t19 -21q11 -31 -17 -47q-69 -36 -158 -36q-108 0 -158 75q-42 -75 -162 -75q-88 0 -131.5 40.5t-43.5 106.5v8q0 65 46 104.5t138 39.5h114v25q0 64 -21.5 92t-81.5 28q-57 0 -102 -25
q-19 -9 -33 -4t-21 19q-7 11 -3.5 25t17.5 23q56 35 147 35q111 0 150 -64q49 64 145 64q102 0 149 -58t48 -152v-41zM643 293v19q0 127 -109 127q-112 0 -112 -127v-19h221zM335 167v59h-105q-106 0 -106 -78v-8q0 -78 103 -78q51 0 79.5 26.5t28.5 78.5z" />
    <glyph glyph-name="ccedilla" unicode="&#xe7;" horiz-adv-x="426" 
d="M393 433q-7 -14 -20 -18.5t-28 1.5q-36 20 -86 20q-55 0 -86 -39t-31 -104v-80q0 -69 28.5 -106.5t85.5 -37.5q50 0 91 21q15 7 28.5 2t19.5 -20q12 -32 -18 -48q-50 -27 -108 -29v-32q108 0 108 -81q0 -38 -31 -60.5t-85 -22.5q-68 0 -68 26q0 20 48 20q69 0 69 40
q0 35 -58 38q-21 2 -28 8.5t-6 21.5l3 43q-84 9 -125.5 68t-41.5 153v69q0 97 51.5 161t146.5 64q78 0 125 -29q32 -18 16 -49z" />
    <glyph glyph-name="egrave" unicode="&#xe8;" horiz-adv-x="494" 
d="M447 260q0 -15 -9.5 -24.5t-23.5 -9.5h-273v-27q0 -61 28 -95.5t85 -34.5q71 0 125 28q14 7 28 1t19 -21q11 -31 -17 -47q-69 -36 -158 -36q-101 0 -149 59t-48 153v93q0 93 49 152.5t148 59.5q103 0 149.5 -58.5t46.5 -151.5v-41zM362 295v17q0 127 -109 127
q-112 0 -112 -127v-17h221zM200 798q9 5 20 5q23 0 33 -21l75 -138q4 -10 4 -16q0 -20 -19 -29q-8 -5 -16 -5q-18 0 -30 20l-81 134q-6 8 -6 19q0 20 20 31z" />
    <glyph glyph-name="eacute" unicode="&#xe9;" horiz-adv-x="494" 
d="M447 260q0 -15 -9.5 -24.5t-23.5 -9.5h-273v-27q0 -61 28 -95.5t85 -34.5q71 0 125 28q14 7 28 1t19 -21q11 -31 -17 -47q-69 -36 -158 -36q-101 0 -149 59t-48 153v93q0 93 49 152.5t148 59.5q103 0 149.5 -58.5t46.5 -151.5v-41zM362 295v17q0 127 -109 127
q-112 0 -112 -127v-17h221zM309 798q20 -11 20 -31q0 -11 -6 -19l-81 -134q-12 -20 -30 -20q-8 0 -16 5q-19 9 -19 29q0 6 4 16l75 138q10 21 33 21q11 0 20 -5z" />
    <glyph glyph-name="ecircumflex" unicode="&#xea;" horiz-adv-x="494" 
d="M447 260q0 -15 -9.5 -24.5t-23.5 -9.5h-273v-27q0 -61 28 -95.5t85 -34.5q71 0 125 28q14 7 28 1t19 -21q11 -31 -17 -47q-69 -36 -158 -36q-101 0 -149 59t-48 153v93q0 93 49 152.5t148 59.5q103 0 149.5 -58.5t46.5 -151.5v-41zM362 295v17q0 127 -109 127
q-112 0 -112 -127v-17h221zM252 798q16 -1 27 -11l122 -118q13 -12 13 -26q0 -13 -9 -24q-11 -12 -25 -12q-12 0 -23 9l-105 94l-105 -94q-11 -8 -22 -8q-16 0 -26 13q-9 9 -9 23t13 26l122 117q11 11 27 11z" />
    <glyph glyph-name="edieresis" unicode="&#xeb;" horiz-adv-x="494" 
d="M447 260q0 -15 -9.5 -24.5t-23.5 -9.5h-273v-27q0 -61 28 -95.5t85 -34.5q71 0 125 28q14 7 28 1t19 -21q11 -31 -17 -47q-69 -36 -158 -36q-101 0 -149 59t-48 153v93q0 93 49 152.5t148 59.5q103 0 149.5 -58.5t46.5 -151.5v-41zM362 295v17q0 127 -109 127
q-112 0 -112 -127v-17h221zM118 670q0 21 14.5 35.5t35.5 14.5t35.5 -14.5t14.5 -35.5t-14.5 -35t-35.5 -14t-35.5 14t-14.5 35zM282 670q0 21 14 35.5t35 14.5t35.5 -14.5t14.5 -35.5t-14.5 -35t-35.5 -14t-35 14t-14 35z" />
    <glyph glyph-name="igrave" unicode="&#xec;" horiz-adv-x="229" 
d="M158 38q0 -19 -13 -31.5t-31 -12.5t-30.5 12.5t-12.5 31.5v429q0 19 12.5 31.5t30.5 12.5t31 -12.5t13 -31.5v-429zM64 798q9 5 20 5q23 0 33 -21l75 -138q4 -10 4 -16q0 -20 -19 -29q-8 -5 -16 -5q-18 0 -30 20l-81 134q-6 8 -6 19q0 20 20 31z" />
    <glyph glyph-name="iacute" unicode="&#xed;" horiz-adv-x="229" 
d="M158 38q0 -19 -13 -31.5t-31 -12.5t-30.5 12.5t-12.5 31.5v429q0 19 12.5 31.5t30.5 12.5t31 -12.5t13 -31.5v-429zM170 798q20 -11 20 -31q0 -11 -6 -19l-81 -134q-12 -20 -30 -20q-8 0 -16 5q-19 9 -19 29q0 6 4 16l75 138q10 21 33 21q11 0 20 -5z" />
    <glyph glyph-name="icircumflex" unicode="&#xee;" horiz-adv-x="229" 
d="M158 38q0 -19 -13 -31.5t-31 -12.5t-30.5 12.5t-12.5 31.5v429q0 19 12.5 31.5t30.5 12.5t31 -12.5t13 -31.5v-429zM115 798q16 -1 27 -11l122 -118q13 -12 13 -26q0 -13 -9 -24q-10 -12 -25 -12q-13 0 -23 9l-105 94l-105 -94q-11 -8 -22 -8q-16 0 -26 13q-9 9 -9 23
t13 26l122 117q11 11 27 11z" />
    <glyph glyph-name="idieresis" unicode="&#xef;" horiz-adv-x="229" 
d="M158 38q0 -19 -13 -31.5t-31 -12.5t-30.5 12.5t-12.5 31.5v429q0 19 12.5 31.5t30.5 12.5t31 -12.5t13 -31.5v-429zM-16 670q0 21 14.5 35.5t35.5 14.5t35.5 -14.5t14.5 -35.5t-14.5 -35t-35.5 -14t-35.5 14t-14.5 35zM148 670q0 21 14 35.5t35 14.5t35.5 -14.5
t14.5 -35.5t-14.5 -35t-35.5 -14t-35 14t-14 35z" />
    <glyph glyph-name="eth" unicode="&#xf0;" horiz-adv-x="553" 
d="M503 240q0 -120 -65.5 -184.5t-163.5 -64.5q-100 0 -162 64t-62 168q0 101 66.5 158t151.5 57q56 0 106 -28q-35 87 -108 162l-80 -60q-11 -9 -25 -7t-22 13q-9 11 -7 25t13 23l69 52q-34 29 -44 36q-19 15 -19 35q0 19 13 32t31 13q16 0 26 -9q41 -31 65 -53l75 56
q11 9 25 7t22 -13q9 -11 7 -25.5t-13 -22.5l-65 -49q166 -174 166 -385zM415 240q0 34 -7 78q-54 44 -129 44q-55 0 -98 -37.5t-43 -101.5q0 -68 36.5 -109t99.5 -41q62 0 101.5 41.5t39.5 125.5z" />
    <glyph glyph-name="ntilde" unicode="&#xf1;" horiz-adv-x="547" 
d="M477 38q0 -19 -13 -31.5t-32 -12.5q-18 0 -31 12.5t-13 31.5v282q0 53 -20 80.5t-74 27.5q-82 0 -122 -63v-327q0 -19 -12.5 -31.5t-30.5 -12.5t-31 12.5t-13 31.5v337q0 28 -7.5 41t-23.5 22q-17 9 -17 29q0 38 43 38q28 0 54 -21q16 -16 22 -33q55 60 157 60
q163 0 163 -183zM440 703q1 -30 -28.5 -50t-67.5 -21q-31 -1 -70 19.5t-60 20.5q-22 0 -39.5 -15t-29.5 -15q-14 0 -23.5 11.5t-9.5 27.5q-1 30 28.5 50t67.5 21q31 1 70 -19.5t60 -20.5q22 0 39.5 15t29.5 15q13 0 23 -11.5t10 -27.5z" />
    <glyph glyph-name="ograve" unicode="&#xf2;" horiz-adv-x="511" 
d="M456 201q0 -92 -49.5 -149.5t-151.5 -57.5q-101 0 -151 57.5t-50 149.5v103q0 92 50 149.5t151 57.5q102 0 151.5 -57.5t49.5 -149.5v-103zM369 201v102q0 127 -114 127q-113 0 -113 -127v-102q0 -127 113 -127q114 0 114 127zM206 798q9 5 20 5q23 0 33 -21l75 -138
q4 -10 4 -16q0 -20 -19 -29q-8 -5 -16 -5q-18 0 -30 20l-81 134q-6 8 -6 19q0 20 20 31z" />
    <glyph glyph-name="oacute" unicode="&#xf3;" horiz-adv-x="511" 
d="M456 201q0 -92 -49.5 -149.5t-151.5 -57.5q-101 0 -151 57.5t-50 149.5v103q0 92 50 149.5t151 57.5q102 0 151.5 -57.5t49.5 -149.5v-103zM369 201v102q0 127 -114 127q-113 0 -113 -127v-102q0 -127 113 -127q114 0 114 127zM308 798q20 -11 20 -31q0 -11 -6 -19
l-81 -134q-12 -20 -30 -20q-8 0 -16 5q-19 9 -19 29q0 6 4 16l75 138q10 21 33 21q11 0 20 -5z" />
    <glyph glyph-name="ocircumflex" unicode="&#xf4;" horiz-adv-x="511" 
d="M456 201q0 -92 -49.5 -149.5t-151.5 -57.5q-101 0 -151 57.5t-50 149.5v103q0 92 50 149.5t151 57.5q102 0 151.5 -57.5t49.5 -149.5v-103zM369 201v102q0 127 -114 127q-113 0 -113 -127v-102q0 -127 113 -127q114 0 114 127zM255 798q16 -1 27 -11l122 -118
q13 -12 13 -26q0 -13 -9 -24q-10 -12 -25 -12q-13 0 -23 9l-105 94l-105 -94q-11 -8 -22 -8q-16 0 -26 13q-9 9 -9 23t13 26l122 117q11 11 27 11z" />
    <glyph glyph-name="otilde" unicode="&#xf5;" horiz-adv-x="511" 
d="M456 201q0 -92 -49.5 -149.5t-151.5 -57.5q-101 0 -151 57.5t-50 149.5v103q0 92 50 149.5t151 57.5q102 0 151.5 -57.5t49.5 -149.5v-103zM369 201v102q0 127 -114 127q-113 0 -113 -127v-102q0 -127 113 -127q114 0 114 127zM421 703q1 -30 -28.5 -50t-67.5 -21
q-31 -1 -70 19.5t-60 20.5q-22 0 -39.5 -15t-29.5 -15q-14 0 -23.5 11.5t-9.5 27.5q-1 30 28.5 50t67.5 21q31 1 70 -19.5t60 -20.5q22 0 39.5 15t29.5 15q13 0 23 -11.5t10 -27.5z" />
    <glyph glyph-name="odieresis" unicode="&#xf6;" horiz-adv-x="511" 
d="M456 201q0 -92 -49.5 -149.5t-151.5 -57.5q-101 0 -151 57.5t-50 149.5v103q0 92 50 149.5t151 57.5q102 0 151.5 -57.5t49.5 -149.5v-103zM369 201v102q0 127 -114 127q-113 0 -113 -127v-102q0 -127 113 -127q114 0 114 127zM122 670q0 21 14.5 35.5t35.5 14.5
t35.5 -14.5t14.5 -35.5t-14.5 -35t-35.5 -14t-35.5 14t-14.5 35zM286 670q0 21 14 35.5t35 14.5t35.5 -14.5t14.5 -35.5t-14.5 -35t-35.5 -14t-35 14t-14 35z" />
    <glyph glyph-name="divide" unicode="&#xf7;" horiz-adv-x="581" 
d="M349 461q0 -25 -17 -42t-42 -17q-24 0 -41 17t-17 42q0 24 17 41t41 17q25 0 42 -17t17 -41zM495 278q0 -16 -12.5 -28.5t-28.5 -12.5h-327q-17 0 -29 12t-12 29t12 29t29 12h327q17 0 29 -12t12 -29zM349 96q0 -25 -17 -42t-42 -17q-24 0 -41 17t-17 42q0 24 17 41
t41 17q25 0 42 -17t17 -41z" />
    <glyph glyph-name="oslash" unicode="&#xf8;" horiz-adv-x="511" 
d="M456 201q0 -92 -49.5 -149.5t-151.5 -57.5q-44 0 -81 13l-17 -37q-11 -22 -33 -12q-9 4 -13 14t0 19l18 39q-75 53 -75 171v103q0 92 50 149.5t151 57.5q45 0 82 -13l16 37q10 22 34 13q22 -10 13 -34l-18 -39q74 -54 74 -171v-103zM304 423q-20 7 -49 7
q-113 0 -113 -127v-102q0 -55 27 -81zM369 201v102q0 55 -27 82l-135 -303q22 -8 48 -8q114 0 114 127z" />
    <glyph glyph-name="ugrave" unicode="&#xf9;" horiz-adv-x="547" 
d="M511 32q0 -19 -12.5 -28.5t-31.5 -9.5q-29 0 -53 21q-16 14 -25 37q-55 -58 -154 -58q-164 0 -164 182v291q0 19 12.5 31.5t30.5 12.5q19 0 31.5 -12.5t12.5 -31.5v-282q0 -54 20.5 -81t74.5 -27q86 0 121 67v323q0 19 13 31.5t31 12.5t31 -13t13 -31v-343q0 -29 7 -41.5
t24 -20.5q18 -11 18 -30zM208 798q9 5 20 5q23 0 33 -21l75 -138q4 -10 4 -16q0 -20 -19 -29q-8 -5 -16 -5q-18 0 -30 20l-81 134q-6 8 -6 19q0 20 20 31z" />
    <glyph glyph-name="uacute" unicode="&#xfa;" horiz-adv-x="547" 
d="M511 32q0 -19 -12.5 -28.5t-31.5 -9.5q-29 0 -53 21q-16 14 -25 37q-55 -58 -154 -58q-164 0 -164 182v291q0 19 12.5 31.5t30.5 12.5q19 0 31.5 -12.5t12.5 -31.5v-282q0 -54 20.5 -81t74.5 -27q86 0 121 67v323q0 19 13 31.5t31 12.5t31 -13t13 -31v-343q0 -29 7 -41.5
t24 -20.5q18 -11 18 -30zM321 798q20 -11 20 -31q0 -11 -6 -19l-81 -134q-12 -20 -30 -20q-8 0 -16 5q-19 9 -19 29q0 6 4 16l75 138q10 21 33 21q11 0 20 -5z" />
    <glyph glyph-name="ucircumflex" unicode="&#xfb;" horiz-adv-x="547" 
d="M511 32q0 -19 -12.5 -28.5t-31.5 -9.5q-29 0 -53 21q-16 14 -25 37q-55 -58 -154 -58q-164 0 -164 182v291q0 19 12.5 31.5t30.5 12.5q19 0 31.5 -12.5t12.5 -31.5v-282q0 -54 20.5 -81t74.5 -27q86 0 121 67v323q0 19 13 31.5t31 12.5t31 -13t13 -31v-343q0 -29 7 -41.5
t24 -20.5q18 -11 18 -30zM265 798q16 -1 27 -11l122 -118q13 -12 13 -26q0 -13 -9 -24q-10 -12 -25 -12q-13 0 -23 9l-105 94l-105 -94q-11 -8 -22 -8q-16 0 -26 13q-9 9 -9 23t13 26l122 117q11 11 27 11z" />
    <glyph glyph-name="udieresis" unicode="&#xfc;" horiz-adv-x="547" 
d="M511 32q0 -19 -12.5 -28.5t-31.5 -9.5q-29 0 -53 21q-16 14 -25 37q-55 -58 -154 -58q-164 0 -164 182v291q0 19 12.5 31.5t30.5 12.5q19 0 31.5 -12.5t12.5 -31.5v-282q0 -54 20.5 -81t74.5 -27q86 0 121 67v323q0 19 13 31.5t31 12.5t31 -13t13 -31v-343q0 -29 7 -41.5
t24 -20.5q18 -11 18 -30zM135 670q0 21 14.5 35.5t35.5 14.5t35.5 -14.5t14.5 -35.5t-14.5 -35t-35.5 -14t-35.5 14t-14.5 35zM299 670q0 21 14 35.5t35 14.5t35.5 -14.5t14.5 -35.5t-14.5 -35t-35.5 -14t-35 14t-14 35z" />
    <glyph glyph-name="yacute" unicode="&#xfd;" horiz-adv-x="457" 
d="M433 453l-135 -383q-45 -130 -101.5 -189.5t-145.5 -63.5q-22 -1 -34.5 11.5t-12.5 31.5q0 16 10 28.5t30 13.5q44 1 78 23t64 79q-111 272 -168 453q-7 23 6.5 38.5t34.5 15.5q30 0 39 -30q62 -189 130 -368l124 369q8 29 39 29q22 0 36 -17t6 -41zM297 798
q20 -11 20 -31q0 -11 -6 -19l-81 -134q-12 -20 -30 -20q-8 0 -16 5q-19 9 -19 29q0 6 4 16l75 138q10 21 33 21q11 0 20 -5z" />
    <glyph glyph-name="thorn" unicode="&#xfe;" horiz-adv-x="505" 
d="M451 217q0 -224 -180 -224q-67 0 -119 39v-173q0 -18 -13 -30.5t-31 -12.5t-30.5 12.5t-12.5 30.5v837q0 18 12.5 31t30.5 13t31 -13t13 -31v-220q55 34 114 34q185 0 185 -202v-91zM363 204v109q0 62 -25 91t-84 29q-53 0 -102 -40v-278q45 -46 104 -46q107 0 107 135z
" />
    <glyph glyph-name="ydieresis" unicode="&#xff;" horiz-adv-x="454" 
d="M433 453l-135 -383q-45 -130 -101.5 -189.5t-145.5 -63.5q-22 -1 -34.5 11.5t-12.5 31.5q0 16 10 28.5t30 13.5q44 1 78 23t64 79q-111 272 -168 453q-7 23 6.5 38.5t34.5 15.5q30 0 39 -30q62 -189 130 -368l124 369q8 29 39 29q22 0 36 -17t6 -41zM96 670
q0 21 14.5 35.5t35.5 14.5t35.5 -14.5t14.5 -35.5t-14.5 -35t-35.5 -14t-35.5 14t-14.5 35zM260 670q0 21 14 35.5t35 14.5t35.5 -14.5t14.5 -35.5t-14.5 -35t-35.5 -14t-35 14t-14 35z" />
    <glyph glyph-name="Amacron" unicode="&#x100;" horiz-adv-x="567" 
d="M552 46q6 -24 -8.5 -39.5t-35.5 -15.5q-35 0 -44 35q-20 81 -39 144h-286l-39 -144q-9 -35 -42 -35q-20 0 -34.5 15.5t-8.5 39.5q79 316 211 643q20 49 57 49t59 -49q130 -320 210 -643zM402 252q-51 166 -120 341q-69 -175 -120 -341h240zM420 905q0 -16 -11 -27
t-27 -11h-198q-16 0 -27 11t-11 27t11 27t27 11h198q16 0 27 -11t11 -27z" />
    <glyph glyph-name="amacron" unicode="&#x101;" horiz-adv-x="504" 
d="M467 32q0 -38 -43 -38q-31 0 -52 21q-13 10 -20 30q-47 -51 -140 -51q-88 0 -131.5 40.5t-43.5 106.5v8q0 66 46.5 105.5t137.5 39.5h114v24q0 64 -21.5 92t-81.5 28q-57 0 -102 -25q-21 -11 -39.5 0t-18.5 29.5t18 33.5q56 35 147 35q103 0 144 -48.5t41 -152.5v-186
q0 -28 6.5 -41t21.5 -22q17 -9 17 -29zM335 167v59h-105q-106 0 -106 -78v-8q0 -78 103 -78q51 0 79.5 26.5t28.5 78.5zM379 678q0 -16 -11 -27t-27 -11h-198q-16 0 -27 11t-11 27t11 27t27 11h198q16 0 27 -11t11 -27z" />
    <glyph glyph-name="Abreve" unicode="&#x102;" horiz-adv-x="567" 
d="M552 46q6 -24 -8.5 -39.5t-35.5 -15.5q-35 0 -44 35q-20 81 -39 144h-286l-39 -144q-9 -35 -42 -35q-20 0 -34.5 15.5t-8.5 39.5q79 316 211 643q20 49 57 49t59 -49q130 -320 210 -643zM402 252q-51 166 -120 341q-69 -175 -120 -341h240zM429 931q-57 -96 -146 -96
t-146 96q-16 28 10 46q11 9 26 7t23 -17q36 -63 87 -63q50 0 87 63q9 14 23.5 16.5t25.5 -5.5q11 -7 14.5 -19.5t-4.5 -27.5z" />
    <glyph glyph-name="abreve" unicode="&#x103;" horiz-adv-x="504" 
d="M467 32q0 -38 -43 -38q-31 0 -52 21q-13 10 -20 30q-47 -51 -140 -51q-88 0 -131.5 40.5t-43.5 106.5v8q0 66 46.5 105.5t137.5 39.5h114v24q0 64 -21.5 92t-81.5 28q-57 0 -102 -25q-21 -11 -39.5 0t-18.5 29.5t18 33.5q56 35 147 35q103 0 144 -48.5t41 -152.5v-186
q0 -28 6.5 -41t21.5 -22q17 -9 17 -29zM335 167v59h-105q-106 0 -106 -78v-8q0 -78 103 -78q51 0 79.5 26.5t28.5 78.5zM398 704q-57 -96 -146 -96t-146 96q-16 28 10 46q11 9 26 7t23 -17q36 -63 87 -63q50 0 87 63q9 14 23.5 16.5t25.5 -5.5q11 -7 14.5 -19.5t-4.5 -27.5z
" />
    <glyph glyph-name="Aogonek" unicode="&#x104;" horiz-adv-x="567" 
d="M603 -154q0 -25 -26 -33q-19 -5 -46 -5q-53 0 -81.5 24t-28.5 65q0 51 52 109q-6 7 -9 20q-20 81 -39 144h-286l-39 -144q-9 -35 -42 -35q-20 0 -34.5 15.5t-8.5 39.5q79 316 211 643q20 49 57 49t59 -49q130 -320 210 -643q7 -35 -21 -49q-39 -42 -39 -77q0 -45 51 -45
q9 0 18.5 1t11.5 1q14 0 22 -9t8 -22zM402 252q-51 166 -120 341q-69 -175 -120 -341h240z" />
    <glyph glyph-name="aogonek" unicode="&#x105;" horiz-adv-x="504" 
d="M516 -156q0 -25 -26 -33q-19 -5 -46 -5q-53 0 -81.5 24t-28.5 65q0 53 52 109q-6 3 -14 11q-13 10 -20 30q-47 -51 -140 -51q-88 0 -131.5 40.5t-43.5 106.5v8q0 66 46.5 105.5t137.5 39.5h114v24q0 64 -21.5 92t-81.5 28q-57 0 -102 -25q-21 -11 -39.5 0t-18.5 29.5
t18 33.5q56 35 147 35q103 0 144 -48.5t41 -152.5v-186q0 -28 6.5 -41t21.5 -22q17 -9 17 -29q0 -25 -19 -33q-43 -46 -43 -81q0 -45 51 -45q9 0 18.5 1t11.5 1q14 0 22 -9t8 -22zM335 167v59h-105q-106 0 -106 -78v-8q0 -78 103 -78q51 0 79.5 26.5t28.5 78.5z" />
    <glyph glyph-name="Cacute" unicode="&#x106;" horiz-adv-x="549" 
d="M510 645q0 -16 -11 -28.5t-31 -13.5q-6 0 -11.5 2.5t-14 8.5l-12.5 9q-37 33 -104 33q-169 0 -169 -234v-116q0 -121 39 -177t125 -56q65 0 112 35q28 20 39 20q17 1 28 -11t11 -28q0 -20 -17 -33q-61 -65 -173 -65q-254 0 -254 314v119q0 144 62.5 229t196.5 85
q111 0 167 -62q17 -13 17 -31zM376 998q20 -11 20 -31q0 -11 -6 -19l-81 -134q-12 -20 -30 -20q-8 0 -16 5q-19 9 -19 29q0 6 4 16l75 138q10 21 33 21q11 0 20 -5z" />
    <glyph glyph-name="cacute" unicode="&#x107;" horiz-adv-x="426" 
d="M393 433q-7 -14 -20 -18.5t-28 1.5q-36 20 -86 20q-55 0 -86 -39t-31 -104v-81q0 -68 28.5 -105.5t85.5 -37.5q50 0 91 21q15 6 28.5 1t19.5 -19q6 -16 0.5 -29t-18.5 -20q-53 -29 -125 -29q-100 0 -149 60.5t-49 161.5v70q0 97 51.5 161t146.5 64q78 0 125 -29
q32 -18 16 -49zM314 798q20 -11 20 -31q0 -11 -6 -19l-81 -134q-12 -20 -30 -20q-8 0 -16 5q-19 9 -19 29q0 6 4 16l75 138q10 21 33 21q11 0 20 -5z" />
    <glyph glyph-name="Ccaron" unicode="&#x10c;" horiz-adv-x="549" 
d="M510 645q0 -16 -11 -28.5t-31 -13.5q-6 0 -11.5 2.5t-14 8.5l-12.5 9q-37 33 -104 33q-169 0 -169 -234v-116q0 -121 39 -177t125 -56q65 0 112 35q28 20 39 20q17 1 28 -11t11 -28q0 -20 -17 -33q-61 -65 -173 -65q-254 0 -254 314v119q0 144 62.5 229t196.5 85
q111 0 167 -62q17 -13 17 -31zM321 807q-14 0 -27 11l-122 117q-13 12 -13 26q0 13 9 23q10 13 26 13q11 0 22 -8l105 -94l105 94q10 9 23 9q14 0 25 -13q9 -9 9 -23t-13 -26l-122 -118q-13 -11 -27 -11z" />
    <glyph glyph-name="ccaron" unicode="&#x10d;" horiz-adv-x="426" 
d="M393 433q-7 -14 -20 -18.5t-28 1.5q-36 20 -86 20q-55 0 -86 -39t-31 -104v-81q0 -68 28.5 -105.5t85.5 -37.5q50 0 91 21q15 6 28.5 1t19.5 -19q6 -16 0.5 -29t-18.5 -20q-53 -29 -125 -29q-100 0 -149 60.5t-49 161.5v70q0 97 51.5 161t146.5 64q78 0 125 -29
q32 -18 16 -49zM251 607q-14 0 -27 11l-122 117q-13 12 -13 26q0 13 9 23q10 13 26 13q11 0 22 -8l105 -94l105 94q10 9 23 9q14 0 25 -13q9 -9 9 -23t-13 -26l-122 -118q-13 -11 -27 -11z" />
    <glyph glyph-name="Dcaron" unicode="&#x10e;" horiz-adv-x="646" 
d="M580 271q0 -37 -5 -70.5t-21.5 -71.5t-43.5 -65.5t-75 -45.5t-112 -18h-195q-19 0 -32 13t-13 32v639q0 18 13 31.5t32 13.5h195q64 0 112 -18t75 -45.5t43.5 -66t21.5 -71.5t5 -71v-186zM490 271v185q0 39 -7 69.5t-24.5 58.5t-53 43.5t-87.5 15.5h-145v-559h145
q52 0 87.5 15.5t53 44t24.5 58.5t7 69zM311 807q-14 0 -27 11l-122 117q-13 12 -13 26q0 13 9 23q10 13 26 13q11 0 22 -8l105 -94l105 94q10 9 23 9q14 0 25 -13q9 -9 9 -23t-13 -26l-122 -118q-13 -11 -27 -11z" />
    <glyph glyph-name="dcaron" unicode="&#x10f;" horiz-adv-x="653" 
d="M485 32q0 -38 -43 -38q-29 0 -53 21q-13 11 -17 24q-62 -45 -133 -45q-185 0 -185 203v90q0 224 179 224q68 0 120 -39v208q0 19 12.5 31.5t30.5 12.5q19 0 31.5 -12.5t12.5 -31.5v-556q0 -29 6 -41.5t22 -20.5q17 -11 17 -30zM353 112v277q-43 46 -104 46
q-107 0 -107 -135v-109q0 -62 25.5 -91.5t84.5 -29.5q52 0 101 42zM620 667q0 -46 -30 -78.5t-49 -32.5q-7 0 -12 5t-5 12q0 9 15.5 22.5t19.5 34.5q-16 4 -26.5 17t-10.5 30q0 19 14.5 33t34.5 14q22 0 35.5 -16t13.5 -41z" />
    <glyph glyph-name="Dcroat" unicode="&#x110;" horiz-adv-x="646" 
d="M580 271q0 -37 -5 -70.5t-21.5 -71.5t-43.5 -65.5t-75 -45.5t-112 -18h-195q-19 0 -32 13t-13 32v639q0 18 13 31.5t32 13.5h195q64 0 112 -18t75 -45.5t43.5 -66t21.5 -71.5t5 -71v-186zM490 271v185q0 39 -7 69.5t-24.5 58.5t-53 43.5t-87.5 15.5h-145v-559h145
q52 0 87.5 15.5t53 44t24.5 58.5t7 69zM460 905q0 -16 -11 -27t-27 -11h-198q-16 0 -27 11t-11 27t11 27t27 11h198q16 0 27 -11t11 -27z" />
    <glyph glyph-name="dcroat" unicode="&#x111;" horiz-adv-x="522" 
d="M532 603q0 -13 -10 -23t-23 -10h-59v-446q0 -29 6 -41.5t22 -20.5q17 -11 17 -30q0 -38 -43 -38q-29 0 -53 21q-13 11 -17 24q-62 -45 -133 -45q-185 0 -185 203v90q0 224 179 224q68 0 120 -39v98h-78q-14 0 -24 9.5t-10 23.5t10 24.5t24 10.5h78v42q0 19 12.5 31.5
t30.5 12.5q19 0 31.5 -12.5t12.5 -31.5v-42h59q13 0 23 -10.5t10 -24.5zM353 112v277q-43 46 -104 46q-107 0 -107 -135v-109q0 -62 25.5 -91.5t84.5 -29.5q52 0 101 42z" />
    <glyph glyph-name="Emacron" unicode="&#x112;" horiz-adv-x="554" 
d="M516 43q0 -18 -12.5 -30.5t-29.5 -12.5h-348q-18 0 -30.5 12.5t-12.5 30.5v643q0 17 12.5 30t30.5 13h333q18 0 31 -13t13 -30q0 -18 -13 -30.5t-31 -12.5h-286v-237h260q17 0 29.5 -12.5t12.5 -29.5t-12.5 -29.5t-29.5 -12.5h-260v-236h301q17 0 29.5 -12.5t12.5 -30.5z
M414 905q0 -16 -11 -27t-27 -11h-198q-16 0 -27 11t-11 27t11 27t27 11h198q16 0 27 -11t11 -27z" />
    <glyph glyph-name="emacron" unicode="&#x113;" horiz-adv-x="494" 
d="M447 260q0 -15 -9.5 -24.5t-23.5 -9.5h-273v-27q0 -61 28 -95.5t85 -34.5q71 0 125 28q14 7 28 1t19 -21q11 -31 -17 -47q-69 -36 -158 -36q-101 0 -149 59t-48 153v93q0 93 49 152.5t148 59.5q103 0 149.5 -58.5t46.5 -151.5v-41zM362 295v17q0 127 -109 127
q-112 0 -112 -127v-17h221zM393 678q0 -16 -11 -27t-27 -11h-198q-16 0 -27 11t-11 27t11 27t27 11h198q16 0 27 -11t11 -27z" />
    <glyph glyph-name="Edotaccent" unicode="&#x116;" horiz-adv-x="554" 
d="M516 43q0 -18 -12.5 -30.5t-29.5 -12.5h-348q-18 0 -30.5 12.5t-12.5 30.5v643q0 17 12.5 30t30.5 13h333q18 0 31 -13t13 -30q0 -18 -13 -30.5t-31 -12.5h-286v-237h260q17 0 29.5 -12.5t12.5 -29.5t-12.5 -29.5t-29.5 -12.5h-260v-236h301q17 0 29.5 -12.5t12.5 -30.5z
M331 896q0 -22 -15.5 -37.5t-38.5 -15.5t-38.5 15.5t-15.5 37.5q0 23 15.5 39t38.5 16t38.5 -16t15.5 -39z" />
    <glyph glyph-name="edotaccent" unicode="&#x117;" horiz-adv-x="494" 
d="M447 260q0 -15 -9.5 -24.5t-23.5 -9.5h-273v-27q0 -61 28 -95.5t85 -34.5q71 0 125 28q14 7 28 1t19 -21q11 -31 -17 -47q-69 -36 -158 -36q-101 0 -149 59t-48 153v93q0 93 49 152.5t148 59.5q103 0 149.5 -58.5t46.5 -151.5v-41zM362 295v17q0 127 -109 127
q-112 0 -112 -127v-17h221zM309 667q0 -22 -15.5 -37.5t-38.5 -15.5t-38.5 15.5t-15.5 37.5q0 23 15.5 39t38.5 16t38.5 -16t15.5 -39z" />
    <glyph glyph-name="Eogonek" unicode="&#x118;" horiz-adv-x="554" 
d="M513 -153q0 -25 -26 -33q-19 -5 -46 -5q-53 0 -81.5 24t-28.5 65q0 49 46 102h-251q-18 0 -30.5 12.5t-12.5 30.5v643q0 17 12.5 30t30.5 13h333q18 0 31 -13t13 -30q0 -18 -13 -30.5t-31 -12.5h-286v-237h260q17 0 29.5 -12.5t12.5 -29.5t-12.5 -29.5t-29.5 -12.5h-260
v-236h301q17 0 29.5 -12.5t12.5 -30.5t-12.5 -30.5t-29.5 -12.5h-31q-41 -42 -41 -79q0 -45 51 -45q9 0 18.5 1t11.5 1q14 0 22 -9t8 -22z" />
    <glyph glyph-name="eogonek" unicode="&#x119;" horiz-adv-x="494" 
d="M429 -147q0 -25 -26 -33q-19 -5 -46 -5q-53 0 -81.5 24t-28.5 65q0 44 37 91q-11 -1 -33 -1q-101 0 -149 59t-48 153v93q0 93 49 152.5t148 59.5q103 0 149.5 -58.5t46.5 -151.5v-41q0 -15 -9.5 -24.5t-23.5 -9.5h-273v-27q0 -61 28 -95.5t85 -34.5q71 0 125 28
q14 7 28 1t19 -21q11 -31 -17 -47q-20 -11 -45 -19q-46 -47 -46 -84q0 -45 51 -45q9 0 18.5 1t11.5 1q14 0 22 -9t8 -22zM362 295v17q0 127 -109 127q-112 0 -112 -127v-17h221z" />
    <glyph glyph-name="Ecaron" unicode="&#x11a;" horiz-adv-x="554" 
d="M516 43q0 -18 -12.5 -30.5t-29.5 -12.5h-348q-18 0 -30.5 12.5t-12.5 30.5v643q0 17 12.5 30t30.5 13h333q18 0 31 -13t13 -30q0 -18 -13 -30.5t-31 -12.5h-286v-237h260q17 0 29.5 -12.5t12.5 -29.5t-12.5 -29.5t-29.5 -12.5h-260v-236h301q17 0 29.5 -12.5t12.5 -30.5z
M282 808q-14 0 -27 11l-122 117q-13 12 -13 26q0 12 9 23q10 13 26 13q11 0 22 -8l105 -94l105 94q11 9 23 9q14 0 25 -13q9 -9 9 -23t-13 -26l-122 -118q-13 -11 -27 -11z" />
    <glyph glyph-name="ecaron" unicode="&#x11b;" horiz-adv-x="494" 
d="M447 260q0 -15 -9.5 -24.5t-23.5 -9.5h-273v-27q0 -61 28 -95.5t85 -34.5q71 0 125 28q14 7 28 1t19 -21q11 -31 -17 -47q-69 -36 -158 -36q-101 0 -149 59t-48 153v93q0 93 49 152.5t148 59.5q103 0 149.5 -58.5t46.5 -151.5v-41zM362 295v17q0 127 -109 127
q-112 0 -112 -127v-17h221zM257 607q-14 0 -27 11l-122 117q-13 12 -13 26q0 13 9 23q10 13 26 13q11 0 22 -8l105 -94l105 94q10 9 23 9q14 0 25 -13q9 -9 9 -23t-13 -26l-122 -118q-13 -11 -27 -11z" />
    <glyph glyph-name="Gbreve" unicode="&#x11e;" horiz-adv-x="615" 
d="M557 240q0 -112 -59 -180.5t-177 -68.5q-254 0 -254 314v119q0 144 62.5 229t197.5 85q112 0 169 -62q17 -15 17 -33q0 -16 -11 -28t-31 -12q-10 -1 -40 20q-41 33 -104 33q-170 0 -170 -234v-116q0 -121 39 -177t125 -56q149 0 149 165v53h-120q-17 0 -29 12.5t-12 29.5
t12 29.5t29 12.5h164q18 0 30.5 -13t12.5 -32v-90zM453 931q-57 -96 -146 -96t-146 96q-16 28 10 46q11 9 26 7t23 -17q36 -63 87 -63q50 0 87 63q9 14 23.5 16.5t25.5 -5.5q11 -7 14.5 -19.5t-4.5 -27.5z" />
    <glyph glyph-name="gbreve" unicode="&#x11f;" horiz-adv-x="512" 
d="M441 37q0 -101 -48.5 -160.5t-153.5 -59.5q-81 0 -136 24q-26 12 -26 35q0 17 13 29t30 8q6 -1 27.5 -7.5t41 -10t45.5 -3.5q120 0 120 141v28q-58 -40 -124 -40q-95 0 -135.5 54t-40.5 156v66q0 214 178 214q70 0 125 -48l1 20q0 12 12 20t27 8q20 0 32 -12.5t12 -31.5
v-430zM354 139v246q-45 49 -107 49q-105 0 -105 -127v-86q0 -63 23.5 -93t79.5 -30q62 0 109 41zM402 704q-57 -96 -146 -96t-146 96q-16 28 10 46q11 9 26 7t23 -17q36 -63 87 -63q50 0 87 63q9 14 23.5 16.5t25.5 -5.5q11 -7 14.5 -19.5t-4.5 -27.5z" />
    <glyph glyph-name="Gcommaaccent" unicode="&#x122;" horiz-adv-x="615" 
d="M557 240q0 -112 -59 -180.5t-177 -68.5q-254 0 -254 314v119q0 144 62.5 229t197.5 85q112 0 169 -62q17 -15 17 -33q0 -16 -11 -28t-31 -12q-10 -1 -40 20q-41 33 -104 33q-170 0 -170 -234v-116q0 -121 39 -177t125 -56q149 0 149 165v53h-120q-17 0 -29 12.5t-12 29.5
t12 29.5t29 12.5h164q18 0 30.5 -13t12.5 -32v-90zM374 -121q0 -46 -29.5 -78.5t-49.5 -32.5q-6 0 -11.5 5t-5.5 12q0 8 16 22t20 35q-17 4 -27 17t-10 30q0 19 14.5 33t34.5 14q22 0 35 -15.5t13 -41.5z" />
    <glyph glyph-name="gcommaaccent" unicode="&#x123;" horiz-adv-x="512" 
d="M441 37q0 -101 -48.5 -160.5t-153.5 -59.5q-81 0 -136 24q-26 12 -26 35q0 17 13 29t30 8q6 -1 27.5 -7.5t41 -10t45.5 -3.5q120 0 120 141v28q-58 -40 -124 -40q-95 0 -135.5 54t-40.5 156v66q0 214 178 214q70 0 125 -48l1 20q0 12 12 20t27 8q20 0 32 -12.5t12 -31.5
v-430zM354 139v246q-45 49 -107 49q-105 0 -105 -127v-86q0 -63 23.5 -93t79.5 -30q62 0 109 41zM296 668q0 -20 -14.5 -34t-34.5 -14q-22 0 -35.5 16t-13.5 42q-1 46 29 79t49 33q8 0 13 -5t5 -13t-16 -22t-19 -36q17 -4 27 -16.5t10 -29.5z" />
    <glyph glyph-name="Imacron" unicode="&#x12a;" horiz-adv-x="256" 
d="M173 36q0 -19 -13 -32t-32 -13t-32 13t-13 32v657q0 18 13 31.5t32 13.5t32 -13.5t13 -31.5v-657zM265 905q0 -16 -11 -27t-27 -11h-198q-16 0 -27 11t-11 27t11 27t27 11h198q16 0 27 -11t11 -27z" />
    <glyph glyph-name="imacron" unicode="&#x12b;" horiz-adv-x="229" 
d="M158 38q0 -19 -13 -31.5t-31 -12.5t-30.5 12.5t-12.5 31.5v429q0 19 12.5 31.5t30.5 12.5t31 -12.5t13 -31.5v-429zM252 678q0 -16 -11 -27t-27 -11h-198q-16 0 -27 11t-11 27t11 27t27 11h198q16 0 27 -11t11 -27z" />
    <glyph glyph-name="Iogonek" unicode="&#x12e;" horiz-adv-x="256" 
d="M223 -155q0 -25 -26 -33q-19 -5 -46 -5q-53 0 -81.5 24t-28.5 65q0 53 53 110q-11 13 -11 30v657q0 18 13 31.5t32 13.5t32 -13.5t13 -31.5v-657q0 -24 -19 -36q-42 -46 -42 -81q0 -45 51 -45q9 0 18.5 1t11.5 1q14 0 22 -9t8 -22z" />
    <glyph glyph-name="iogonek" unicode="&#x12f;" horiz-adv-x="229" 
d="M206 -155q0 -25 -26 -33q-19 -5 -46 -5q-53 0 -81.5 24t-28.5 65q0 54 56 114q-9 10 -9 28v429q0 19 12.5 31.5t30.5 12.5t31 -12.5t13 -31.5v-429q0 -21 -17 -35q-46 -47 -46 -84q0 -45 51 -45q9 0 18.5 1t11.5 1q14 0 22 -9t8 -22zM168 667q0 -22 -15.5 -37.5
t-38.5 -15.5t-38.5 15.5t-15.5 37.5q0 23 15.5 39t38.5 16t38.5 -16t15.5 -39z" />
    <glyph glyph-name="Idotaccent" unicode="&#x130;" horiz-adv-x="256" 
d="M173 36q0 -19 -13 -32t-32 -13t-32 13t-13 32v657q0 18 13 31.5t32 13.5t32 -13.5t13 -31.5v-657zM182 896q0 -22 -15.5 -37.5t-38.5 -15.5t-38.5 15.5t-15.5 37.5q0 23 15.5 39t38.5 16t38.5 -16t15.5 -39z" />
    <glyph glyph-name="dotlessi" unicode="&#x131;" horiz-adv-x="229" 
d="M158 38q0 -19 -13 -31.5t-31 -12.5t-30.5 12.5t-12.5 31.5v429q0 19 12.5 31.5t30.5 12.5t31 -12.5t13 -31.5v-429z" />
    <glyph glyph-name="Kcommaaccent" unicode="&#x136;" horiz-adv-x="569" 
d="M546 57q13 -25 -2 -45.5t-40 -20.5t-38 24q-97 174 -210 335l-83 -100v-214q0 -19 -13 -32t-32 -13t-32 13t-13 32v657q0 18 13 31.5t32 13.5t32 -13.5t13 -31.5v-322l282 351q14 16 35 16q15 0 28 -11q14 -11 15.5 -30t-9.5 -32l-208 -246q127 -177 230 -362zM359 -121
q0 -46 -30 -78.5t-49 -32.5q-7 0 -12 5t-5 12q0 8 15.5 22t19.5 35q-16 4 -26.5 17t-10.5 30q0 19 14.5 33t34.5 14q22 0 35.5 -16t13.5 -41z" />
    <glyph glyph-name="kcommaaccent" unicode="&#x137;" horiz-adv-x="467" 
d="M446 54q11 -24 -3 -42t-37 -18q-26 0 -37 26q-59 119 -139 228l-72 -72v-138q0 -19 -13 -31.5t-31 -12.5t-30.5 12.5t-12.5 31.5v642q0 19 12.5 31.5t30.5 12.5t31 -12.5t13 -31.5v-398l214 218q12 11 28.5 10.5t28.5 -11.5q11 -11 11 -28t-12 -27l-137 -137
q95 -130 155 -253zM309 -121q0 -46 -29.5 -78.5t-49.5 -32.5q-6 0 -11.5 5t-5.5 12q0 8 16 22t20 35q-17 4 -27 17t-10 30q0 19 14.5 33t34.5 14q22 0 35 -15.5t13 -41.5z" />
    <glyph glyph-name="Lacute" unicode="&#x139;" horiz-adv-x="523" 
d="M515 43q0 -18 -12.5 -30.5t-30.5 -12.5h-346q-18 0 -30.5 12.5t-12.5 30.5v650q0 18 13 31.5t32 13.5t32 -13.5t13 -31.5v-607h299q18 0 30.5 -12.5t12.5 -30.5zM217 998q20 -11 20 -31q0 -11 -6 -19l-81 -134q-12 -20 -30 -20q-8 0 -16 5q-19 9 -19 29q0 6 4 16l75 138
q10 21 33 21q11 0 20 -5z" />
    <glyph glyph-name="lacute" unicode="&#x13a;" horiz-adv-x="240" 
d="M203 32q0 -38 -44 -38q-27 0 -53 21q-39 34 -39 94v571q0 19 13 31.5t31 12.5t31 -12.5t13 -31.5v-556q0 -29 7 -41.5t24 -20.5q17 -11 17 -30zM205 998q20 -11 20 -31q0 -11 -6 -19l-81 -134q-12 -20 -30 -20q-8 0 -16 5q-19 9 -19 29q0 6 4 16l75 138q10 21 33 21
q11 0 20 -5z" />
    <glyph glyph-name="Lcommaaccent" unicode="&#x13b;" horiz-adv-x="523" 
d="M515 43q0 -18 -12.5 -30.5t-30.5 -12.5h-346q-18 0 -30.5 12.5t-12.5 30.5v650q0 18 13 31.5t32 13.5t32 -13.5t13 -31.5v-607h299q18 0 30.5 -12.5t12.5 -30.5zM347 -121q0 -46 -30 -78.5t-49 -32.5q-7 0 -12.5 5t-5.5 12q0 8 16 22t20 35q-17 4 -27 17t-10 30
q0 19 14.5 33t34.5 14q22 0 35.5 -16t13.5 -41z" />
    <glyph glyph-name="lcommaaccent" unicode="&#x13c;" horiz-adv-x="240" 
d="M203 32q0 -38 -44 -38q-27 0 -53 21q-39 34 -39 94v571q0 19 13 31.5t31 12.5t31 -12.5t13 -31.5v-556q0 -29 7 -41.5t24 -20.5q17 -11 17 -30zM186 -121q0 -46 -29.5 -78.5t-49.5 -32.5q-6 0 -11.5 5t-5.5 12q0 8 16 22t20 35q-17 4 -27 17t-10 30q0 19 14.5 33t34.5 14
q22 0 35 -15.5t13 -41.5z" />
    <glyph glyph-name="Lcaron" unicode="&#x13d;" horiz-adv-x="523" 
d="M515 43q0 -18 -12.5 -30.5t-30.5 -12.5h-346q-18 0 -30.5 12.5t-12.5 30.5v650q0 18 13 31.5t32 13.5t32 -13.5t13 -31.5v-607h299q18 0 30.5 -12.5t12.5 -30.5zM378 681q0 -46 -30 -78.5t-49 -32.5q-7 0 -12 5t-5 12q0 9 15.5 22.5t19.5 34.5q-16 4 -26.5 17t-10.5 30
q0 19 14.5 33t34.5 14q22 0 35.5 -16t13.5 -41z" />
    <glyph glyph-name="lcaron" unicode="&#x13e;" horiz-adv-x="372" 
d="M203 32q0 -38 -44 -38q-27 0 -53 21q-39 34 -39 94v571q0 19 13 31.5t31 12.5t31 -12.5t13 -31.5v-556q0 -29 7 -41.5t24 -20.5q17 -11 17 -30zM338 667q0 -46 -29.5 -78.5t-49.5 -32.5q-7 0 -12 5t-5 12q0 9 15.5 22.5t19.5 34.5q-16 4 -26.5 17t-10.5 30q0 19 14.5 33
t34.5 14q22 0 35.5 -16t13.5 -41z" />
    <glyph glyph-name="Lslash" unicode="&#x141;" horiz-adv-x="567" 
d="M559 43q0 -18 -12.5 -30.5t-30.5 -12.5h-346q-18 0 -31 12.5t-13 30.5v238l-49 -32q-14 -9 -31 -5.5t-27 18.5q-10 14 -6 31t18 27l95 61v312q0 18 13.5 31.5t31.5 13.5q19 0 32 -13.5t13 -31.5v-253l77 50q15 10 32 6t26 -18q10 -15 6.5 -32t-18.5 -26l-123 -80v-254
h300q18 0 30.5 -12.5t12.5 -30.5z" />
    <glyph glyph-name="lslash" unicode="&#x142;" horiz-adv-x="355" 
d="M346 477q9 -14 5.5 -30.5t-17.5 -25.5l-124 -80v-213q0 -28 7.5 -41t24.5 -22t17 -29q0 -38 -44 -38q-27 0 -53 21q-39 34 -39 94v171l-52 -33q-14 -10 -30.5 -6t-25.5 18q-9 13 -5.5 30t17.5 26l96 62v304q0 18 12.5 31t31.5 13q18 0 30.5 -13t12.5 -31v-247l79 51
q14 9 30.5 5.5t26.5 -17.5z" />
    <glyph glyph-name="Nacute" unicode="&#x143;" horiz-adv-x="668" 
d="M585 33q0 -18 -12 -30t-32 -12q-30 0 -43 22l-332 539v-519q0 -17 -12.5 -29.5t-29.5 -12.5t-29 12.5t-12 29.5v663q0 18 12 30t32 12q30 0 44 -25l331 -537v520q0 17 12.5 29.5t29.5 12.5t29 -12.5t12 -29.5v-663zM390 998q20 -11 20 -31q0 -11 -6 -19l-81 -134
q-12 -20 -30 -20q-8 0 -16 5q-19 9 -19 29q0 6 4 16l75 138q10 21 33 21q11 0 20 -5z" />
    <glyph glyph-name="nacute" unicode="&#x144;" horiz-adv-x="547" 
d="M477 38q0 -19 -13 -31.5t-32 -12.5q-18 0 -31 12.5t-13 31.5v282q0 53 -20 80.5t-74 27.5q-82 0 -122 -63v-327q0 -19 -12.5 -31.5t-30.5 -12.5t-31 12.5t-13 31.5v337q0 28 -7.5 41t-23.5 22q-17 9 -17 29q0 38 43 38q28 0 54 -21q16 -16 22 -33q55 60 157 60
q163 0 163 -183zM330 798q20 -11 20 -31q0 -11 -6 -19l-81 -134q-12 -20 -30 -20q-8 0 -16 5q-19 9 -19 29q0 6 4 16l75 138q10 21 33 21q11 0 20 -5z" />
    <glyph glyph-name="Ncommaaccent" unicode="&#x145;" horiz-adv-x="668" 
d="M585 33q0 -18 -12 -30t-32 -12q-30 0 -43 22l-332 539v-519q0 -17 -12.5 -29.5t-29.5 -12.5t-29 12.5t-12 29.5v663q0 18 12 30t32 12q30 0 44 -25l331 -537v520q0 17 12.5 29.5t29.5 12.5t29 -12.5t12 -29.5v-663zM382 -121q0 -46 -30 -78.5t-49 -32.5q-7 0 -12 5t-5 12
q0 8 15.5 22t19.5 35q-16 4 -26.5 17t-10.5 30q0 19 14.5 33t34.5 14q22 0 35.5 -16t13.5 -41z" />
    <glyph glyph-name="ncommaaccent" unicode="&#x146;" horiz-adv-x="547" 
d="M477 38q0 -19 -13 -31.5t-32 -12.5q-18 0 -31 12.5t-13 31.5v282q0 53 -20 80.5t-74 27.5q-82 0 -122 -63v-327q0 -19 -12.5 -31.5t-30.5 -12.5t-31 12.5t-13 31.5v337q0 28 -7.5 41t-23.5 22q-17 9 -17 29q0 38 43 38q28 0 54 -21q16 -16 22 -33q55 60 157 60
q163 0 163 -183zM336 -121q0 -46 -30 -78.5t-49 -32.5q-7 0 -12.5 5t-5.5 12q0 8 16 22t20 35q-17 4 -27 17t-10 30q0 19 14.5 33t34.5 14q22 0 35.5 -16t13.5 -41z" />
    <glyph glyph-name="Ncaron" unicode="&#x147;" horiz-adv-x="668" 
d="M585 33q0 -18 -12 -30t-32 -12q-30 0 -43 22l-332 539v-519q0 -17 -12.5 -29.5t-29.5 -12.5t-29 12.5t-12 29.5v663q0 18 12 30t32 12q30 0 44 -25l331 -537v520q0 17 12.5 29.5t29.5 12.5t29 -12.5t12 -29.5v-663zM334 807q-14 0 -27 11l-122 117q-13 12 -13 26
q0 13 9 23q10 13 26 13q11 0 22 -8l105 -94l105 94q11 9 23 9q14 0 25 -13q9 -9 9 -23t-13 -26l-122 -118q-13 -11 -27 -11z" />
    <glyph glyph-name="ncaron" unicode="&#x148;" horiz-adv-x="547" 
d="M477 38q0 -19 -13 -31.5t-32 -12.5q-18 0 -31 12.5t-13 31.5v282q0 53 -20 80.5t-74 27.5q-82 0 -122 -63v-327q0 -19 -12.5 -31.5t-30.5 -12.5t-31 12.5t-13 31.5v337q0 28 -7.5 41t-23.5 22q-17 9 -17 29q0 38 43 38q28 0 54 -21q16 -16 22 -33q55 60 157 60
q163 0 163 -183zM278 607q-14 0 -27 11l-122 117q-13 12 -13 26q0 13 9 23q10 13 26 13q11 0 22 -8l105 -94l105 94q11 9 23 9q14 0 25 -13q9 -9 9 -23t-13 -26l-122 -118q-13 -11 -27 -11z" />
    <glyph glyph-name="Omacron" unicode="&#x14c;" 
d="M566 261q0 -54 -13 -100t-41 -85.5t-78 -62t-117 -22.5q-68 0 -118 22.5t-78 62t-41 85.5t-13 100v207q0 54 13 100t41 85.5t78 62t118 22.5q67 0 117 -22.5t78 -62t41 -85.5t13 -100v-207zM476 261v207q0 187 -159 187q-160 0 -160 -187v-207q0 -188 160 -188
q159 0 159 188zM453 905q0 -16 -11 -27t-27 -11h-198q-16 0 -27 11t-11 27t11 27t27 11h198q16 0 27 -11t11 -27z" />
    <glyph glyph-name="omacron" unicode="&#x14d;" horiz-adv-x="511" 
d="M456 201q0 -92 -49.5 -149.5t-151.5 -57.5q-101 0 -151 57.5t-50 149.5v103q0 92 50 149.5t151 57.5q102 0 151.5 -57.5t49.5 -149.5v-103zM369 201v102q0 127 -114 127q-113 0 -113 -127v-102q0 -127 113 -127q114 0 114 127zM393 678q0 -16 -11 -27t-27 -11h-198
q-16 0 -27 11t-11 27t11 27t27 11h198q16 0 27 -11t11 -27z" />
    <glyph glyph-name="Ohungarumlaut" unicode="&#x150;" 
d="M566 261q0 -54 -13 -100t-41 -85.5t-78 -62t-117 -22.5q-68 0 -118 22.5t-78 62t-41 85.5t-13 100v207q0 54 13 100t41 85.5t78 62t118 22.5q67 0 117 -22.5t78 -62t41 -85.5t13 -100v-207zM476 261v207q0 187 -159 187q-160 0 -160 -187v-207q0 -188 160 -188
q159 0 159 188zM300 1025q20 -10 20 -31q0 -13 -5 -19l-81 -134q-12 -20 -31 -20q-7 0 -15 5q-19 8 -19 29q0 9 4 16l74 138q10 21 34 21q11 0 19 -5zM496 1025q21 -11 21 -31q0 -12 -6 -19l-81 -134q-12 -20 -31 -20q-7 0 -15 5q-19 9 -19 29q0 9 4 16l74 138q10 21 34 21
q12 0 19 -5z" />
    <glyph glyph-name="ohungarumlaut" unicode="&#x151;" horiz-adv-x="511" 
d="M456 201q0 -92 -49.5 -149.5t-151.5 -57.5q-101 0 -151 57.5t-50 149.5v103q0 92 50 149.5t151 57.5q102 0 151.5 -57.5t49.5 -149.5v-103zM369 201v102q0 127 -114 127q-113 0 -113 -127v-102q0 -127 113 -127q114 0 114 127zM242 798q20 -10 20 -31q0 -13 -5 -19
l-81 -134q-12 -20 -31 -20q-7 0 -15 5q-19 8 -19 29q0 9 4 16l74 138q10 21 34 21q12 0 19 -5zM438 798q21 -10 21 -31q0 -11 -6 -19l-81 -134q-12 -20 -31 -20q-7 0 -15 5q-19 9 -19 29q0 9 4 16l74 138q10 21 34 21q11 0 19 -5z" />
    <glyph glyph-name="OE" unicode="&#x152;" horiz-adv-x="948" 
d="M910 43q0 -18 -12.5 -30.5t-29.5 -12.5h-349q-17 0 -29.5 12.5t-12.5 30.5v7q-59 -59 -160 -59q-68 0 -118 22.5t-78 62t-41 86t-13 100.5v206q0 54 13 100t41 85.5t78 62t118 22.5q98 0 160 -58v6q0 17 12.5 30t29.5 13h334q18 0 30.5 -13t12.5 -30q0 -18 -12.5 -30.5
t-30.5 -12.5h-287v-237h261q17 0 29.5 -12.5t12.5 -29.5t-12.5 -29.5t-29.5 -12.5h-261v-236h302q17 0 29.5 -12.5t12.5 -30.5zM477 262v206q0 187 -160 187t-160 -187v-206q0 -189 160 -189t160 189z" />
    <glyph glyph-name="oe" unicode="&#x153;" horiz-adv-x="808" 
d="M762 260q0 -15 -9.5 -24.5t-23.5 -9.5h-273v-27q0 -130 113 -130q74 0 125 28q15 6 28.5 0.5t18.5 -20.5q12 -31 -17 -47q-69 -36 -159 -36q-106 0 -152 74q-51 -74 -158 -74q-101 0 -151 57.5t-50 149.5v103q0 92 50 149.5t151 57.5q110 0 158 -75q48 75 153 75
q103 0 149.5 -58t46.5 -152v-41zM677 295v18q0 127 -110 127q-111 0 -111 -128v-17h221zM369 201v102q0 127 -114 127q-113 0 -113 -127v-102q0 -127 113 -127q114 0 114 127z" />
    <glyph glyph-name="Racute" unicode="&#x154;" horiz-adv-x="606" 
d="M552 55q12 -25 -3 -44.5t-39 -19.5q-28 0 -39 26q-79 152 -164 284h-134v-265q0 -19 -13 -32t-32 -13t-32 13t-13 32v648q0 18 13 31.5t32 13.5h190q116 0 174 -52.5t58 -138.5v-43q0 -64 -37.5 -113t-109.5 -66q85 -134 149 -261zM460 495v43q0 46 -34.5 76.5
t-108.5 30.5h-144v-261h143q71 0 107.5 32t36.5 79zM359 998q20 -11 20 -31q0 -11 -6 -19l-81 -134q-12 -20 -30 -20q-8 0 -16 5q-19 9 -19 29q0 6 4 16l75 138q10 21 33 21q11 0 20 -5z" />
    <glyph glyph-name="racute" unicode="&#x155;" horiz-adv-x="390" 
d="M387 463q0 -19 -11 -31.5t-31 -12.5q-6 0 -23.5 3.5t-37.5 3.5q-92 0 -112 -90v-298q0 -19 -12.5 -31.5t-30.5 -12.5t-31 12.5t-13 31.5v337q0 28 -7.5 41t-23.5 22q-17 9 -17 29q0 38 44 38q27 0 48.5 -18.5t31.5 -43.5q48 67 138 67q35 0 61.5 -11.5t26.5 -35.5z
M252 798q20 -11 20 -31q0 -11 -6 -19l-81 -134q-12 -20 -30 -20q-8 0 -16 5q-19 9 -19 29q0 6 4 16l75 138q10 21 33 21q11 0 20 -5z" />
    <glyph glyph-name="Rcommaaccent" unicode="&#x156;" horiz-adv-x="606" 
d="M552 55q12 -25 -3 -44.5t-39 -19.5q-28 0 -39 26q-79 152 -164 284h-134v-265q0 -19 -13 -32t-32 -13t-32 13t-13 32v648q0 18 13 31.5t32 13.5h190q116 0 174 -52.5t58 -138.5v-43q0 -64 -37.5 -113t-109.5 -66q85 -134 149 -261zM460 495v43q0 46 -34.5 76.5
t-108.5 30.5h-144v-261h143q71 0 107.5 32t36.5 79zM359 -121q0 -46 -30 -78.5t-49 -32.5q-7 0 -12 5t-5 12q0 8 15.5 22t19.5 35q-16 4 -26.5 17t-10.5 30q0 19 14.5 33t34.5 14q22 0 35.5 -16t13.5 -41z" />
    <glyph glyph-name="rcommaaccent" unicode="&#x157;" horiz-adv-x="390" 
d="M387 463q0 -19 -11 -31.5t-31 -12.5q-6 0 -23.5 3.5t-37.5 3.5q-92 0 -112 -90v-298q0 -19 -12.5 -31.5t-30.5 -12.5t-31 12.5t-13 31.5v337q0 28 -7.5 41t-23.5 22q-17 9 -17 29q0 38 44 38q27 0 48.5 -18.5t31.5 -43.5q48 67 138 67q35 0 61.5 -11.5t26.5 -35.5z
M180 -121q0 -46 -30 -78.5t-49 -32.5q-7 0 -12 5t-5 12q0 8 15.5 22t19.5 35q-16 4 -26.5 17t-10.5 30q0 19 14.5 33t34.5 14q22 0 35.5 -16t13.5 -41z" />
    <glyph glyph-name="Rcaron" unicode="&#x158;" horiz-adv-x="606" 
d="M552 55q12 -25 -3 -44.5t-39 -19.5q-28 0 -39 26q-79 152 -164 284h-134v-265q0 -19 -13 -32t-32 -13t-32 13t-13 32v648q0 18 13 31.5t32 13.5h190q116 0 174 -52.5t58 -138.5v-43q0 -64 -37.5 -113t-109.5 -66q85 -134 149 -261zM460 495v43q0 46 -34.5 76.5
t-108.5 30.5h-144v-261h143q71 0 107.5 32t36.5 79zM300 807q-14 0 -27 11l-122 117q-13 12 -13 26q0 13 9 23q10 13 26 13q11 0 22 -8l105 -94l105 94q10 9 23 9q14 0 25 -13q9 -9 9 -23t-13 -26l-122 -118q-13 -11 -27 -11z" />
    <glyph glyph-name="rcaron" unicode="&#x159;" horiz-adv-x="390" 
d="M387 463q0 -19 -11 -31.5t-31 -12.5q-6 0 -23.5 3.5t-37.5 3.5q-92 0 -112 -90v-298q0 -19 -12.5 -31.5t-30.5 -12.5t-31 12.5t-13 31.5v337q0 28 -7.5 41t-23.5 22q-17 9 -17 29q0 38 44 38q27 0 48.5 -18.5t31.5 -43.5q48 67 138 67q35 0 61.5 -11.5t26.5 -35.5z
M196 607q-14 0 -27 11l-122 117q-13 12 -13 26q0 13 9 23q10 13 26 13q11 0 22 -8l105 -94l105 94q11 9 23 9q14 0 25 -13q9 -9 9 -23t-13 -26l-122 -118q-13 -11 -27 -11z" />
    <glyph glyph-name="Sacute" unicode="&#x15a;" horiz-adv-x="577" 
d="M531 215q0 -106 -70.5 -165t-189.5 -59q-116 0 -192 32q-29 12 -29 41q0 17 11.5 30t28.5 13q8 0 33 -10t52 -15q41 -9 89 -9q88 0 132.5 36t44.5 98q0 44 -23 68t-74 39q-18 6 -94.5 22t-107.5 31q-90 44 -90 156q0 100 66 157.5t169 57.5q99 0 167 -28q29 -10 29 -40
q0 -18 -11.5 -31t-30.5 -13q-7 0 -29 8.5t-45 13.5q-33 7 -75 7q-70 0 -110 -33.5t-40 -90.5q0 -45 24 -68t75 -37q22 -6 70.5 -15t86 -20t61.5 -27q72 -47 72 -149zM344 998q20 -11 20 -31q0 -11 -6 -19l-81 -134q-12 -20 -30 -20q-8 0 -16 5q-19 9 -19 29q0 6 4 16l75 138
q10 21 33 21q11 0 20 -5z" />
    <glyph glyph-name="sacute" unicode="&#x15b;" horiz-adv-x="436" 
d="M395 148q0 -75 -52.5 -114.5t-138.5 -39.5q-82 0 -142 22q-15 5 -21 19.5t-1 29.5q5 16 19.5 22.5t30.5 0.5q49 -19 115 -19q53 0 79.5 20.5t26.5 55.5q0 15 -6.5 27t-14 19t-24.5 13t-27.5 8.5t-34.5 7.5l-34 7q-61 14 -95 42.5t-34 92.5q0 70 48 109.5t123 39.5
q74 0 130 -22q15 -5 21 -19.5t1 -29.5t-19 -21.5t-29 -1.5q-52 20 -100 20q-44 0 -68 -19.5t-24 -51.5q0 -8 2 -15.5t4.5 -13t8.5 -10.5l10.5 -8.5t13.5 -7l14.5 -5.5t17.5 -5t17.5 -4t19 -4t19.5 -4q32 -6 53 -13.5t44.5 -22.5t35 -41.5t11.5 -63.5zM275 798q20 -11 20 -31
q0 -11 -6 -19l-81 -134q-12 -20 -30 -20q-8 0 -16 5q-19 9 -19 29q0 6 4 16l75 138q10 21 33 21q11 0 20 -5z" />
    <glyph glyph-name="Scedilla" unicode="&#x15e;" horiz-adv-x="577" 
d="M409 -118q0 -38 -31 -60.5t-86 -22.5q-67 0 -67 26q0 19 48 19q69 0 69 41q0 19 -14 27.5t-44 10.5q-20 2 -28 8t-7 21l3 39q-105 3 -173 32q-29 12 -29 41q0 17 11.5 30t28.5 13q8 0 33 -10t52 -15q41 -9 89 -9q88 0 132.5 36t44.5 98q0 44 -23 68t-74 39
q-18 6 -94.5 22t-107.5 31q-90 44 -90 156q0 100 66 157.5t169 57.5q99 0 167 -28q29 -10 29 -40q0 -18 -11.5 -31t-30.5 -13q-7 0 -29 8.5t-45 13.5q-33 7 -75 7q-70 0 -110 -33.5t-40 -90.5q0 -45 24 -68t75 -37q22 -6 70.5 -15t86 -20t61.5 -27q72 -47 72 -149
q0 -99 -62.5 -157.5t-168.5 -65.5v-30q109 0 109 -80z" />
    <glyph glyph-name="Scedilla" unicode="&#xf6c1;" horiz-adv-x="577" 
d="M409 -118q0 -38 -31 -60.5t-86 -22.5q-67 0 -67 26q0 19 48 19q69 0 69 41q0 19 -14 27.5t-44 10.5q-20 2 -28 8t-7 21l3 39q-105 3 -173 32q-29 12 -29 41q0 17 11.5 30t28.5 13q8 0 33 -10t52 -15q41 -9 89 -9q88 0 132.5 36t44.5 98q0 44 -23 68t-74 39
q-18 6 -94.5 22t-107.5 31q-90 44 -90 156q0 100 66 157.5t169 57.5q99 0 167 -28q29 -10 29 -40q0 -18 -11.5 -31t-30.5 -13q-7 0 -29 8.5t-45 13.5q-33 7 -75 7q-70 0 -110 -33.5t-40 -90.5q0 -45 24 -68t75 -37q22 -6 70.5 -15t86 -20t61.5 -27q72 -47 72 -149
q0 -99 -62.5 -157.5t-168.5 -65.5v-30q109 0 109 -80z" />
    <glyph glyph-name="scedilla" unicode="&#x15f;" horiz-adv-x="436" 
d="M342 -118q0 -38 -31 -60.5t-86 -22.5q-67 0 -67 26q0 19 48 19q69 0 69 41q0 19 -14 27.5t-44 10.5q-20 2 -28 8t-7 21l3 42q-72 3 -123 22q-15 5 -21 19.5t-1 29.5q5 16 19.5 22.5t30.5 0.5q49 -19 115 -19q53 0 79.5 20.5t26.5 55.5q0 15 -6.5 27t-14 19t-24.5 13
t-27.5 8.5t-34.5 7.5l-34 7q-61 14 -95 42.5t-34 92.5q0 70 48 109.5t123 39.5q74 0 130 -22q15 -5 21 -19.5t1 -29.5t-19 -21.5t-29 -1.5q-52 20 -100 20q-44 0 -68 -19.5t-24 -51.5q0 -8 2 -15.5t4.5 -13t8.5 -10.5l10.5 -8.5t13.5 -7l14.5 -5.5t17.5 -5t17.5 -4t19 -4
t19.5 -4q32 -6 53 -13.5t44.5 -22.5t35 -41.5t11.5 -63.5q0 -69 -44 -107.5t-118 -44.5v-34q109 0 109 -80z" />
    <glyph glyph-name="scedilla" unicode="&#xf6c2;" horiz-adv-x="436" 
d="M342 -118q0 -38 -31 -60.5t-86 -22.5q-67 0 -67 26q0 19 48 19q69 0 69 41q0 19 -14 27.5t-44 10.5q-20 2 -28 8t-7 21l3 42q-72 3 -123 22q-15 5 -21 19.5t-1 29.5q5 16 19.5 22.5t30.5 0.5q49 -19 115 -19q53 0 79.5 20.5t26.5 55.5q0 15 -6.5 27t-14 19t-24.5 13
t-27.5 8.5t-34.5 7.5l-34 7q-61 14 -95 42.5t-34 92.5q0 70 48 109.5t123 39.5q74 0 130 -22q15 -5 21 -19.5t1 -29.5t-19 -21.5t-29 -1.5q-52 20 -100 20q-44 0 -68 -19.5t-24 -51.5q0 -8 2 -15.5t4.5 -13t8.5 -10.5l10.5 -8.5t13.5 -7l14.5 -5.5t17.5 -5t17.5 -4t19 -4
t19.5 -4q32 -6 53 -13.5t44.5 -22.5t35 -41.5t11.5 -63.5q0 -69 -44 -107.5t-118 -44.5v-34q109 0 109 -80z" />
    <glyph glyph-name="Scaron" unicode="&#x160;" horiz-adv-x="577" 
d="M531 215q0 -106 -70.5 -165t-189.5 -59q-116 0 -192 32q-29 12 -29 41q0 17 11.5 30t28.5 13q8 0 33 -10t52 -15q41 -9 89 -9q88 0 132.5 36t44.5 98q0 44 -23 68t-74 39q-18 6 -94.5 22t-107.5 31q-90 44 -90 156q0 100 66 157.5t169 57.5q99 0 167 -28q29 -10 29 -40
q0 -18 -11.5 -31t-30.5 -13q-7 0 -29 8.5t-45 13.5q-33 7 -75 7q-70 0 -110 -33.5t-40 -90.5q0 -45 24 -68t75 -37q22 -6 70.5 -15t86 -20t61.5 -27q72 -47 72 -149zM284 807q-14 0 -27 11l-122 117q-13 12 -13 26q0 13 9 23q10 13 26 13q11 0 22 -8l105 -94l105 94
q11 9 23 9q14 0 25 -13q9 -9 9 -23t-13 -26l-122 -118q-13 -11 -27 -11z" />
    <glyph glyph-name="scaron" unicode="&#x161;" horiz-adv-x="436" 
d="M395 148q0 -75 -52.5 -114.5t-138.5 -39.5q-82 0 -142 22q-15 5 -21 19.5t-1 29.5q5 16 19.5 22.5t30.5 0.5q49 -19 115 -19q53 0 79.5 20.5t26.5 55.5q0 15 -6.5 27t-14 19t-24.5 13t-27.5 8.5t-34.5 7.5l-34 7q-61 14 -95 42.5t-34 92.5q0 70 48 109.5t123 39.5
q74 0 130 -22q15 -5 21 -19.5t1 -29.5t-19 -21.5t-29 -1.5q-52 20 -100 20q-44 0 -68 -19.5t-24 -51.5q0 -8 2 -15.5t4.5 -13t8.5 -10.5l10.5 -8.5t13.5 -7l14.5 -5.5t17.5 -5t17.5 -4t19 -4t19.5 -4q32 -6 53 -13.5t44.5 -22.5t35 -41.5t11.5 -63.5zM217 607q-14 0 -27 11
l-122 117q-13 12 -13 26q0 13 9 23q10 13 26 13q11 0 22 -8l105 -94l105 94q10 9 23 9q14 0 25 -13q9 -9 9 -23t-13 -26l-122 -118q-13 -11 -27 -11z" />
    <glyph glyph-name="Tcommaaccent" unicode="&#x162;" horiz-adv-x="573" 
d="M564 685q0 -18 -13 -30.5t-31 -12.5h-189v-606q0 -19 -13 -32t-32 -13q-18 0 -31.5 13t-13.5 32v606h-189q-18 0 -30.5 12.5t-12.5 30.5t12.5 31t30.5 13h468q18 0 31 -13t13 -31zM335 -121q0 -46 -30 -78.5t-49 -32.5q-7 0 -12.5 5t-5.5 12q0 8 16 22t20 35
q-17 4 -27 17t-10 30q0 19 14.5 33t34.5 14q22 0 35.5 -16t13.5 -41z" />
    <glyph glyph-name="Tcommaaccent" unicode="&#x21a;" horiz-adv-x="573" 
d="M564 685q0 -18 -13 -30.5t-31 -12.5h-189v-606q0 -19 -13 -32t-32 -13q-18 0 -31.5 13t-13.5 32v606h-189q-18 0 -30.5 12.5t-12.5 30.5t12.5 31t30.5 13h468q18 0 31 -13t13 -31zM335 -121q0 -46 -30 -78.5t-49 -32.5q-7 0 -12.5 5t-5.5 12q0 8 16 22t20 35
q-17 4 -27 17t-10 30q0 19 14.5 33t34.5 14q22 0 35.5 -16t13.5 -41z" />
    <glyph glyph-name="tcommaaccent" unicode="&#x163;" horiz-adv-x="337" 
d="M326 40q0 -17 -11.5 -28.5t-27.5 -11.5h-30q-98 0 -136 55t-38 162v213h-29q-16 0 -27 11t-11 26q0 16 11 27t27 11h29v103q0 18 12.5 31t31.5 13q18 0 30.5 -13t12.5 -31v-103h93q16 0 27 -11t11 -27q0 -15 -11 -26t-27 -11h-93l1 -212q0 -78 19 -108t76 -30h21
q16 0 27.5 -11.5t11.5 -28.5zM245 -121q0 -46 -30 -78.5t-49 -32.5q-7 0 -12 5t-5 12q0 8 15.5 22t19.5 35q-16 4 -26.5 17t-10.5 30q0 19 14.5 33t34.5 14q22 0 35.5 -16t13.5 -41z" />
    <glyph glyph-name="tcommaaccent" unicode="&#x21b;" horiz-adv-x="337" 
d="M326 40q0 -17 -11.5 -28.5t-27.5 -11.5h-30q-98 0 -136 55t-38 162v213h-29q-16 0 -27 11t-11 26q0 16 11 27t27 11h29v103q0 18 12.5 31t31.5 13q18 0 30.5 -13t12.5 -31v-103h93q16 0 27 -11t11 -27q0 -15 -11 -26t-27 -11h-93l1 -212q0 -78 19 -108t76 -30h21
q16 0 27.5 -11.5t11.5 -28.5zM245 -121q0 -46 -30 -78.5t-49 -32.5q-7 0 -12 5t-5 12q0 8 15.5 22t19.5 35q-16 4 -26.5 17t-10.5 30q0 19 14.5 33t34.5 14q22 0 35.5 -16t13.5 -41z" />
    <glyph glyph-name="Tcaron" unicode="&#x164;" horiz-adv-x="573" 
d="M564 685q0 -18 -13 -30.5t-31 -12.5h-189v-606q0 -19 -13 -32t-32 -13q-18 0 -31.5 13t-13.5 32v606h-189q-18 0 -30.5 12.5t-12.5 30.5t12.5 31t30.5 13h468q18 0 31 -13t13 -31zM286 807q-14 0 -27 11l-122 117q-13 12 -13 26q0 13 9 23q10 13 26 13q11 0 22 -8
l105 -94l105 94q10 9 23 9q14 0 25 -13q9 -9 9 -23t-13 -26l-122 -118q-13 -11 -27 -11z" />
    <glyph glyph-name="tcaron" unicode="&#x165;" horiz-adv-x="464" 
d="M326 40q0 -17 -11.5 -28.5t-27.5 -11.5h-30q-98 0 -136 55t-38 162v213h-29q-16 0 -27 11t-11 26q0 16 11 27t27 11h29v103q0 18 12.5 31t31.5 13q18 0 30.5 -13t12.5 -31v-103h93q16 0 27 -11t11 -27q0 -15 -11 -26t-27 -11h-93l1 -212q0 -78 19 -108t76 -30h21
q16 0 27.5 -11.5t11.5 -28.5zM431 667q0 -46 -30 -78.5t-49 -32.5q-7 0 -12 5t-5 12q0 9 15.5 22.5t19.5 34.5q-16 4 -26.5 17t-10.5 30q0 19 14.5 33t34.5 14q22 0 35.5 -16t13.5 -41z" />
    <glyph glyph-name="Umacron" unicode="&#x16a;" 
d="M566 237q0 -108 -63.5 -177t-185.5 -69q-124 0 -187 69t-63 177v456q0 19 13 32t31 13q19 0 32 -13t13 -32v-453q0 -74 38.5 -121.5t122.5 -47.5q83 0 121 47t38 122v453q0 18 13.5 31.5t31.5 13.5q19 0 32 -13.5t13 -31.5v-456zM453 905q0 -16 -11 -27t-27 -11h-198
q-16 0 -27 11t-11 27t11 27t27 11h198q16 0 27 -11t11 -27z" />
    <glyph glyph-name="umacron" unicode="&#x16b;" horiz-adv-x="547" 
d="M511 32q0 -19 -12.5 -28.5t-31.5 -9.5q-29 0 -53 21q-16 14 -25 37q-55 -58 -154 -58q-164 0 -164 182v291q0 19 12.5 31.5t30.5 12.5q19 0 31.5 -12.5t12.5 -31.5v-282q0 -54 20.5 -81t74.5 -27q86 0 121 67v323q0 19 13 31.5t31 12.5t31 -13t13 -31v-343q0 -29 7 -41.5
t24 -20.5q18 -11 18 -30zM411 678q0 -16 -11 -27t-27 -11h-198q-16 0 -27 11t-11 27t11 27t27 11h198q16 0 27 -11t11 -27z" />
    <glyph glyph-name="Uring" unicode="&#x16e;" 
d="M566 237q0 -108 -63.5 -177t-185.5 -69q-124 0 -187 69t-63 177v456q0 19 13 32t31 13q19 0 32 -13t13 -32v-453q0 -74 38.5 -121.5t122.5 -47.5q83 0 121 47t38 122v453q0 18 13.5 31.5t31.5 13.5q19 0 32 -13.5t13 -31.5v-456zM433 891q0 -49 -34 -83t-83 -34t-83 34
t-34 83t34 83t83 34t83 -34t34 -83zM384 891q0 28 -20 48t-48 20t-48 -20t-20 -48t20 -48t48 -20t48 20t20 48z" />
    <glyph glyph-name="uring" unicode="&#x16f;" horiz-adv-x="547" 
d="M511 32q0 -19 -12.5 -28.5t-31.5 -9.5q-29 0 -53 21q-16 14 -25 37q-55 -58 -154 -58q-164 0 -164 182v291q0 19 12.5 31.5t30.5 12.5q19 0 31.5 -12.5t12.5 -31.5v-282q0 -54 20.5 -81t74.5 -27q86 0 121 67v323q0 19 13 31.5t31 12.5t31 -13t13 -31v-343q0 -29 7 -41.5
t24 -20.5q18 -11 18 -30zM391 691q0 -49 -34 -83t-83 -34t-83 34t-34 83t34 83t83 34t83 -34t34 -83zM342 691q0 28 -20 48t-48 20t-48 -20t-20 -48t20 -48t48 -20t48 20t20 48z" />
    <glyph glyph-name="Uhungarumlaut" unicode="&#x170;" 
d="M566 237q0 -108 -63.5 -177t-185.5 -69q-124 0 -187 69t-63 177v456q0 19 13 32t31 13q19 0 32 -13t13 -32v-453q0 -74 38.5 -121.5t122.5 -47.5q83 0 121 47t38 122v453q0 18 13.5 31.5t31.5 13.5q19 0 32 -13.5t13 -31.5v-456zM307 1025q20 -10 20 -31q0 -13 -5 -19
l-81 -134q-12 -20 -31 -20q-7 0 -15 5q-19 8 -19 29q0 9 4 16l74 138q10 21 34 21q12 0 19 -5zM503 1025q21 -11 21 -31q0 -12 -6 -19l-81 -134q-12 -20 -31 -20q-7 0 -15 5q-19 9 -19 29q0 9 4 16l74 138q10 21 34 21q12 0 19 -5z" />
    <glyph glyph-name="uhungarumlaut" unicode="&#x171;" horiz-adv-x="547" 
d="M511 32q0 -19 -12.5 -28.5t-31.5 -9.5q-29 0 -53 21q-16 14 -25 37q-55 -58 -154 -58q-164 0 -164 182v291q0 19 12.5 31.5t30.5 12.5q19 0 31.5 -12.5t12.5 -31.5v-282q0 -54 20.5 -81t74.5 -27q86 0 121 67v323q0 19 13 31.5t31 12.5t31 -13t13 -31v-343q0 -29 7 -41.5
t24 -20.5q18 -11 18 -30zM268 798q20 -10 20 -31q0 -13 -5 -19l-81 -134q-12 -20 -31 -20q-7 0 -15 5q-19 8 -19 29q0 9 4 16l74 138q10 21 34 21q11 0 19 -5zM464 798q21 -10 21 -31q0 -11 -6 -19l-81 -134q-12 -20 -31 -20q-7 0 -15 5q-19 9 -19 29q0 9 4 16l74 138
q10 21 34 21q11 0 19 -5z" />
    <glyph glyph-name="Uogonek" unicode="&#x172;" 
d="M420 -162q0 -25 -26 -33q-19 -5 -46 -5q-53 0 -81.5 24t-28.5 65q0 48 47 104q-108 9 -163 76t-55 168v456q0 19 13 32t31 13q19 0 32 -13t13 -32v-453q0 -74 38.5 -121.5t122.5 -47.5q83 0 121 47t38 122v453q0 18 13.5 31.5t31.5 13.5q19 0 32 -13.5t13 -31.5v-456
q0 -100 -54.5 -167t-159.5 -77q-43 -44 -43 -81q0 -45 51 -45q9 0 18.5 1t11.5 1q14 0 22 -9t8 -22z" />
    <glyph glyph-name="uogonek" unicode="&#x173;" horiz-adv-x="547" 
d="M564 -153q0 -25 -26 -33q-19 -5 -46 -5q-53 0 -81.5 24t-28.5 65q0 50 49 105q-10 5 -17 12q-16 14 -25 37q-55 -58 -154 -58q-164 0 -164 182v291q0 19 12.5 31.5t30.5 12.5q19 0 31.5 -12.5t12.5 -31.5v-282q0 -54 20.5 -81t74.5 -27q86 0 121 67v323q0 19 13 31.5
t31 12.5t31 -13t13 -31v-343q0 -29 7 -41.5t24 -20.5q18 -11 18 -30q0 -21 -16 -31q-42 -45 -42 -80q0 -45 51 -45q9 0 18.5 1t11.5 1q14 0 22 -9t8 -22z" />
    <glyph glyph-name="Wcircumflex" unicode="&#x174;" horiz-adv-x="868" 
d="M850 696q0 -4 -2 -12q-68 -304 -164 -641q-15 -52 -58 -52q-44 0 -58 51q-75 262 -134 514q-59 -252 -134 -514q-14 -51 -58 -51q-43 0 -58 52q-96 337 -164 641q-2 8 -2 12q0 19 14 30.5t32 11.5q33 0 42 -35q54 -249 139 -560q78 283 135 542q12 53 55 53q41 0 53 -53
q65 -288 135 -542q79 285 139 560q9 35 42 35q18 0 32 -11.5t14 -30.5zM433 998q16 -1 27 -11l122 -118q13 -12 13 -26q0 -13 -9 -24q-10 -12 -25 -12q-13 0 -23 9l-105 94l-105 -94q-11 -8 -22 -8q-16 0 -26 13q-9 9 -9 23t13 26l122 117q11 11 27 11z" />
    <glyph glyph-name="wcircumflex" unicode="&#x175;" horiz-adv-x="708" 
d="M685 463q-68 -263 -123 -430q-13 -39 -55 -39q-43 0 -54 39q-48 151 -99 335q-53 -193 -99 -335q-11 -39 -54 -39q-42 0 -55 39q-64 198 -122 430q-5 21 8 34.5t32 13.5q32 0 39 -31q61 -231 102 -365q57 186 100 357q8 39 50 39q39 0 48 -39q54 -206 101 -357
q54 179 101 365q7 31 40 31q19 0 31.5 -13.5t8.5 -34.5zM353 798q16 -1 27 -11l122 -118q13 -12 13 -26q0 -13 -9 -24q-10 -12 -25 -12q-13 0 -23 9l-105 94l-105 -94q-11 -8 -22 -8q-16 0 -26 13q-9 9 -9 23t13 26l122 117q11 11 27 11z" />
    <glyph glyph-name="Ycircumflex" unicode="&#x176;" horiz-adv-x="503" 
d="M503 695q0 -6 -4 -18q-80 -183 -203 -410v-231q0 -19 -13 -32t-32 -13t-32 13t-13 32v231q-116 212 -202 408q-4 8 -4 19q0 19 14 31.5t33 12.5q26 0 39 -27q59 -141 166 -342q95 176 167 342q13 27 38 27q18 0 32 -12.5t14 -30.5zM252 998q16 -1 27 -11l122 -118
q13 -12 13 -26q0 -13 -9 -24q-11 -12 -25 -12q-12 0 -23 9l-105 94l-105 -94q-11 -8 -22 -8q-16 0 -26 13q-9 9 -9 23t13 26l122 117q11 11 27 11z" />
    <glyph glyph-name="ycircumflex" unicode="&#x177;" horiz-adv-x="454" 
d="M433 453l-135 -383q-45 -130 -101.5 -189.5t-145.5 -63.5q-22 -1 -34.5 11.5t-12.5 31.5q0 16 10 28.5t30 13.5q44 1 78 23t64 79q-111 272 -168 453q-7 23 6.5 38.5t34.5 15.5q30 0 39 -30q62 -189 130 -368l124 369q8 29 39 29q22 0 36 -17t6 -41zM227 798
q16 -1 27 -11l122 -118q13 -12 13 -26q0 -13 -9 -24q-10 -12 -25 -12q-13 0 -23 9l-105 94l-105 -94q-11 -8 -22 -8q-16 0 -26 13q-9 9 -9 23t13 26l122 117q11 11 27 11z" />
    <glyph glyph-name="Ydieresis" unicode="&#x178;" horiz-adv-x="503" 
d="M503 695q0 -6 -4 -18q-80 -183 -203 -410v-231q0 -19 -13 -32t-32 -13t-32 13t-13 32v231q-116 212 -202 408q-4 8 -4 19q0 19 14 31.5t33 12.5q26 0 39 -27q59 -141 166 -342q95 176 167 342q13 27 38 27q18 0 32 -12.5t14 -30.5zM118 875q0 21 14.5 35.5t35.5 14.5
t35.5 -14.5t14.5 -35.5t-14.5 -35t-35.5 -14t-35.5 14t-14.5 35zM282 875q0 21 14 35.5t35 14.5t35.5 -14.5t14.5 -35.5t-14.5 -35t-35.5 -14t-35 14t-14 35z" />
    <glyph glyph-name="Zacute" unicode="&#x179;" horiz-adv-x="519" 
d="M499 43q0 -18 -12.5 -30.5t-30.5 -12.5h-394q-19 0 -31 12.5t-12 30.5t13 42l344 558h-313q-17 0 -29.5 12.5t-12.5 30.5q0 17 12.5 30t29.5 13h392q20 0 31 -12t11 -31q0 -18 -13 -38l-347 -562h319q18 0 30.5 -12.5t12.5 -30.5zM322 998q20 -11 20 -31q0 -11 -6 -19
l-81 -134q-12 -20 -30 -20q-8 0 -16 5q-19 9 -19 29q0 6 4 16l75 138q10 21 33 21q11 0 20 -5z" />
    <glyph glyph-name="zacute" unicode="&#x17a;" horiz-adv-x="424" 
d="M404 466q0 -16 -12 -34l-255 -354h228q17 0 28 -11t11 -28q0 -16 -11.5 -27.5t-27.5 -11.5h-304q-15 0 -27.5 12t-12.5 31q0 16 8 25l258 358h-210q-16 0 -27.5 12t-11.5 28t11.5 27.5t27.5 11.5h286q16 0 28.5 -10t12.5 -29zM300 798q20 -11 20 -31q0 -11 -6 -19
l-81 -134q-12 -20 -30 -20q-8 0 -16 5q-19 9 -19 29q0 6 4 16l75 138q10 21 33 21q11 0 20 -5z" />
    <glyph glyph-name="Zdotaccent" unicode="&#x17b;" horiz-adv-x="519" 
d="M499 43q0 -18 -12.5 -30.5t-30.5 -12.5h-394q-19 0 -31 12.5t-12 30.5t13 42l344 558h-313q-17 0 -29.5 12.5t-12.5 30.5q0 17 12.5 30t29.5 13h392q20 0 31 -12t11 -31q0 -18 -13 -38l-347 -562h319q18 0 30.5 -12.5t12.5 -30.5zM314 896q0 -22 -15.5 -37.5t-38.5 -15.5
t-38.5 15.5t-15.5 37.5q0 23 15.5 39t38.5 16t38.5 -16t15.5 -39z" />
    <glyph glyph-name="zdotaccent" unicode="&#x17c;" horiz-adv-x="424" 
d="M404 466q0 -16 -12 -34l-255 -354h228q17 0 28 -11t11 -28q0 -16 -11.5 -27.5t-27.5 -11.5h-304q-15 0 -27.5 12t-12.5 31q0 16 8 25l258 358h-210q-16 0 -27.5 12t-11.5 28t11.5 27.5t27.5 11.5h286q16 0 28.5 -10t12.5 -29zM266 667q0 -22 -15.5 -37.5t-38.5 -15.5
t-38.5 15.5t-15.5 37.5q0 23 15.5 39t38.5 16t38.5 -16t15.5 -39z" />
    <glyph glyph-name="Zcaron" unicode="&#x17d;" horiz-adv-x="519" 
d="M499 43q0 -18 -12.5 -30.5t-30.5 -12.5h-394q-19 0 -31 12.5t-12 30.5t13 42l344 558h-313q-17 0 -29.5 12.5t-12.5 30.5q0 17 12.5 30t29.5 13h392q20 0 31 -12t11 -31q0 -18 -13 -38l-347 -562h319q18 0 30.5 -12.5t12.5 -30.5zM260 807q-14 0 -27 11l-122 117
q-13 12 -13 26q0 13 9 23q10 13 26 13q11 0 22 -8l105 -94l105 94q11 9 23 9q14 0 25 -13q9 -9 9 -23t-13 -26l-122 -118q-13 -11 -27 -11z" />
    <glyph glyph-name="zcaron" unicode="&#x17e;" horiz-adv-x="433" 
d="M404 466q0 -16 -12 -34l-255 -354h228q17 0 28 -11t11 -28q0 -16 -11.5 -27.5t-27.5 -11.5h-304q-15 0 -27.5 12t-12.5 31q0 16 8 25l258 358h-210q-16 0 -27.5 12t-11.5 28t11.5 27.5t27.5 11.5h286q16 0 28.5 -10t12.5 -29zM219 607q-14 0 -27 11l-122 117
q-13 12 -13 26q0 13 9 23q10 13 26 13q11 0 22 -8l105 -94l105 94q10 9 23 9q14 0 25 -13q9 -9 9 -23t-13 -26l-122 -118q-13 -11 -27 -11z" />
    <glyph glyph-name="florin" unicode="&#x192;" horiz-adv-x="385" 
d="M403 683q0 -17 -11.5 -28t-27.5 -11h-17q-62 0 -76 -71l-12 -72h58q15 0 26 -10.5t11 -26.5t-11 -26.5t-26 -10.5h-71l-81 -465q-27 -160 -170 -160h-16q-16 0 -27.5 11.5t-11.5 27.5t11.5 27.5t27.5 11.5h11q38 0 59 19.5t30 71.5l79 456h-31q-16 0 -26.5 10.5
t-10.5 26.5t10.5 26.5t26.5 10.5h44l14 82q10 60 51.5 99.5t106.5 39.5h21q16 0 27.5 -11t11.5 -28z" />
    <glyph glyph-name="Scommaaccent" unicode="&#x218;" horiz-adv-x="577" 
d="M531 215q0 -106 -70.5 -165t-189.5 -59q-116 0 -192 32q-29 12 -29 41q0 17 11.5 30t28.5 13q8 0 33 -10t52 -15q41 -9 89 -9q88 0 132.5 36t44.5 98q0 44 -23 68t-74 39q-18 6 -94.5 22t-107.5 31q-90 44 -90 156q0 100 66 157.5t169 57.5q99 0 167 -28q29 -10 29 -40
q0 -18 -11.5 -31t-30.5 -13q-7 0 -29 8.5t-45 13.5q-33 7 -75 7q-70 0 -110 -33.5t-40 -90.5q0 -45 24 -68t75 -37q22 -6 70.5 -15t86 -20t61.5 -27q72 -47 72 -149zM326 -121q0 -46 -30 -78.5t-49 -32.5q-7 0 -12 5t-5 12q0 8 15.5 22t19.5 35q-16 4 -26.5 17t-10.5 30
q0 19 14.5 33t34.5 14q22 0 35.5 -16t13.5 -41z" />
    <glyph glyph-name="scommaaccent" unicode="&#x219;" horiz-adv-x="436" 
d="M395 148q0 -75 -52.5 -114.5t-138.5 -39.5q-82 0 -142 22q-15 5 -21 19.5t-1 29.5q5 16 19.5 22.5t30.5 0.5q49 -19 115 -19q53 0 79.5 20.5t26.5 55.5q0 15 -6.5 27t-14 19t-24.5 13t-27.5 8.5t-34.5 7.5l-34 7q-61 14 -95 42.5t-34 92.5q0 70 48 109.5t123 39.5
q74 0 130 -22q15 -5 21 -19.5t1 -29.5t-19 -21.5t-29 -1.5q-52 20 -100 20q-44 0 -68 -19.5t-24 -51.5q0 -8 2 -15.5t4.5 -13t8.5 -10.5l10.5 -8.5t13.5 -7l14.5 -5.5t17.5 -5t17.5 -4t19 -4t19.5 -4q32 -6 53 -13.5t44.5 -22.5t35 -41.5t11.5 -63.5zM259 -121
q0 -46 -29.5 -78.5t-49.5 -32.5q-7 0 -12 5t-5 12q0 8 15.5 22t19.5 35q-16 4 -26.5 17t-10.5 30q0 19 14.5 33t34.5 14q22 0 35.5 -16t13.5 -41z" />
    <glyph glyph-name="circumflex" unicode="&#x2c6;" horiz-adv-x="530" 
d="M265 798q16 -1 27 -11l122 -118q13 -12 13 -26q0 -13 -9 -24q-10 -12 -25 -12q-13 0 -23 9l-105 94l-105 -94q-11 -8 -22 -8q-16 0 -26 13q-9 9 -9 23t13 26l122 117q11 11 27 11z" />
    <glyph glyph-name="caron" unicode="&#x2c7;" horiz-adv-x="530" 
d="M265 607q-14 0 -27 11l-122 117q-13 12 -13 26q0 13 9 23q10 13 26 13q11 0 22 -8l105 -94l105 94q10 9 23 9q14 0 25 -13q9 -9 9 -23t-13 -26l-122 -118q-13 -11 -27 -11z" />
    <glyph glyph-name="breve" unicode="&#x2d8;" horiz-adv-x="530" 
d="M411 704q-57 -96 -146 -96t-146 96q-16 28 10 46q11 9 26 7t23 -17q36 -63 87 -63q50 0 87 63q9 14 23.5 16.5t25.5 -5.5q11 -7 14.5 -19.5t-4.5 -27.5z" />
    <glyph glyph-name="dotaccent" unicode="&#x2d9;" horiz-adv-x="530" 
d="M319 667q0 -22 -15.5 -37.5t-38.5 -15.5t-38.5 15.5t-15.5 37.5q0 23 15.5 39t38.5 16t38.5 -16t15.5 -39z" />
    <glyph glyph-name="ring" unicode="&#x2da;" horiz-adv-x="530" 
d="M382 691q0 -49 -34 -83t-83 -34t-83 34t-34 83t34 83t83 34t83 -34t34 -83zM333 691q0 28 -20 48t-48 20t-48 -20t-20 -48t20 -48t48 -20t48 20t20 48z" />
    <glyph glyph-name="ogonek" unicode="&#x2db;" horiz-adv-x="530" 
d="M359 -153q0 -25 -26 -33q-19 -5 -46 -5q-53 0 -81.5 24t-28.5 65q0 55 63 121l54 -14q-46 -47 -46 -84q0 -45 51 -45q9 0 18.5 1t11.5 1q14 0 22 -9t8 -22z" />
    <glyph glyph-name="tilde" unicode="&#x2dc;" horiz-adv-x="530" 
d="M429 703q1 -30 -28.5 -50t-67.5 -21q-31 -1 -70 19.5t-60 20.5q-22 0 -39.5 -15t-29.5 -15q-14 0 -23.5 11.5t-9.5 27.5q-1 30 28.5 50t67.5 21q31 1 70 -19.5t60 -20.5q22 0 39.5 15t29.5 15q13 0 23 -11.5t10 -27.5z" />
    <glyph glyph-name="hungarumlaut" unicode="&#x2dd;" horiz-adv-x="530" 
d="M222 798q20 -10 20 -31q0 -13 -5 -19l-81 -134q-12 -20 -31 -20q-7 0 -15 5q-19 8 -19 29q0 9 4 16l74 138q10 21 34 21q11 0 19 -5zM418 798q21 -10 21 -31q0 -11 -6 -19l-81 -134q-12 -20 -31 -20q-7 0 -15 5q-19 9 -19 29q0 9 4 16l74 138q10 21 34 21q12 0 19 -5z
" />
    <glyph glyph-name="Delta" unicode="&#x394;" horiz-adv-x="578" 
d="M558 54q6 -23 -8.5 -38.5t-36.5 -15.5h-449q-21 0 -35 15.5t-9 38.5q79 316 212 635q19 49 57 49t58 -49q130 -313 211 -635zM459 81q-69 257 -171 514q-102 -257 -171 -514h342z" />
    <glyph glyph-name="Delta" unicode="&#x2206;" horiz-adv-x="578" 
d="M558 54q6 -23 -8.5 -38.5t-36.5 -15.5h-449q-21 0 -35 15.5t-9 38.5q79 316 212 635q19 49 57 49t58 -49q130 -313 211 -635zM459 81q-69 257 -171 514q-102 -257 -171 -514h342z" />
    <glyph glyph-name="Omega" unicode="&#x3a9;" 
d="M609 40q0 -16 -11.5 -28t-28.5 -12h-181q-18 0 -30 10.5t-12 27.5q0 21 21 36q116 64 116 195v198q0 85 -40 136.5t-126 51.5t-126 -51.5t-40 -136.5v-198q0 -131 114 -195q21 -14 21 -36q0 -17 -11.5 -27.5t-28.5 -10.5h-182q-16 0 -28 12t-12 28q0 17 11.5 29t28.5 12
h101q-104 73 -104 230v156q0 54 14 100.5t43 85.5t80 61.5t119 22.5q67 0 118 -22.5t80 -61.5t43 -85.5t14 -100.5v-156q0 -158 -103 -230h100q17 0 28.5 -12t11.5 -29z" />
    <glyph glyph-name="Omega" unicode="&#x2126;" 
d="M609 40q0 -16 -11.5 -28t-28.5 -12h-181q-18 0 -30 10.5t-12 27.5q0 21 21 36q116 64 116 195v198q0 85 -40 136.5t-126 51.5t-126 -51.5t-40 -136.5v-198q0 -131 114 -195q21 -14 21 -36q0 -17 -11.5 -27.5t-28.5 -10.5h-182q-16 0 -28 12t-12 28q0 17 11.5 29t28.5 12
h101q-104 73 -104 230v156q0 54 14 100.5t43 85.5t80 61.5t119 22.5q67 0 118 -22.5t80 -61.5t43 -85.5t14 -100.5v-156q0 -158 -103 -230h100q17 0 28.5 -12t11.5 -29z" />
    <glyph glyph-name="pi" unicode="&#x3c0;" horiz-adv-x="550" 
d="M507 30q0 -18 -12.5 -27.5t-31.5 -9.5q-31 0 -53 21q-40 32 -40 94v317h-177v-317q0 -60 -40 -94q-24 -21 -53 -21q-19 0 -31.5 9.5t-12.5 27.5q0 20 18 30q17 9 24 21.5t7 40.5v303h-20q-17 0 -28 11.5t-11 27.5q0 17 11.5 28.5t27.5 11.5h393q16 0 27.5 -12t11.5 -28
t-11.5 -27.5t-27.5 -11.5h-20v-303q0 -28 7 -40.5t24 -21.5q18 -10 18 -30z" />
    <glyph glyph-name="endash" unicode="&#x2013;" horiz-adv-x="500" 
d="M500 277q0 -17 -12 -29t-29 -12h-418q-17 0 -29 12t-12 29t12 29t29 12h418q17 0 29 -12t12 -29z" />
    <glyph glyph-name="emdash" unicode="&#x2014;" horiz-adv-x="1000" 
d="M1000 277q0 -17 -12 -29t-29 -12h-918q-17 0 -29 12t-12 29t12 29t29 12h918q17 0 29 -12t12 -29z" />
    <glyph glyph-name="quoteleft" unicode="&#x2018;" horiz-adv-x="206" 
d="M162 594q1 -24 -16.5 -41t-41.5 -17q-26 0 -43 19t-17 50q-1 55 35.5 95t59.5 40q8 0 14.5 -6t6.5 -15t-19 -26.5t-23 -43.5q20 -5 32 -20t12 -35z" />
    <glyph glyph-name="quoteright" unicode="&#x2019;" horiz-adv-x="206" 
d="M162 671q1 -55 -35 -95t-59 -40q-8 0 -14.5 6t-6.5 15q0 10 19 27t23 42q-20 5 -32.5 20.5t-12.5 35.5q0 25 17 41.5t41 16.5q27 0 43.5 -19t16.5 -50z" />
    <glyph glyph-name="quotesinglbase" unicode="&#x201a;" horiz-adv-x="206" 
d="M162 39q0 -55 -36 -94.5t-59 -39.5q-9 0 -15 5.5t-6 14.5q0 10 19 27t24 43q-20 5 -32.5 20.5t-12.5 35.5q0 24 17.5 40.5t41.5 16.5q26 0 42.5 -19t16.5 -50z" />
    <glyph glyph-name="quotedblleft" unicode="&#x201c;" horiz-adv-x="379" 
d="M335 594q0 -24 -17.5 -41t-41.5 -17q-26 0 -42.5 19t-17.5 50q0 55 36 95t59 40q9 0 15.5 -6t6.5 -15t-9 -16.5t-20 -20.5t-14 -33q19 -5 31.5 -20t13.5 -35zM162 594q1 -24 -16.5 -41t-41.5 -17q-26 0 -43 19t-17 50q-1 55 35.5 95t59.5 40q8 0 14.5 -6t6.5 -15
t-19 -26.5t-23 -43.5q20 -5 32 -20t12 -35z" />
    <glyph glyph-name="quotedblright" unicode="&#x201d;" horiz-adv-x="379" 
d="M335 671q1 -55 -35.5 -95t-59.5 -40q-8 0 -14.5 6t-6.5 15t19 26.5t23 42.5q-19 5 -31.5 20.5t-13.5 35.5q0 24 17.5 41t41.5 17q26 0 42.5 -19t17.5 -50zM162 671q1 -55 -35 -95t-59 -40q-8 0 -14.5 6t-6.5 15q0 10 19 27t23 42q-20 5 -32.5 20.5t-12.5 35.5
q0 25 17 41.5t41 16.5q27 0 43.5 -19t16.5 -50z" />
    <glyph glyph-name="quotedblbase" unicode="&#x201e;" horiz-adv-x="378" 
d="M334 39q0 -55 -36.5 -94.5t-59.5 -39.5q-9 0 -15 5.5t-6 14.5t9 16.5t20 20.5t14 33q-19 5 -31.5 20.5t-12.5 35.5q0 24 17 40.5t42 16.5q26 0 42.5 -19t16.5 -50zM162 39q0 -55 -36 -94.5t-59 -39.5q-9 0 -15 5.5t-6 14.5q0 10 19 27t24 43q-20 5 -32.5 20.5t-12.5 35.5
q0 24 17.5 40.5t41.5 16.5q26 0 42.5 -19t16.5 -50z" />
    <glyph glyph-name="dagger" unicode="&#x2020;" horiz-adv-x="537" 
d="M492 480q0 -16 -11.5 -27.5t-27.5 -11.5h-139v-405q0 -19 -13.5 -32t-31.5 -13q-19 0 -32 13t-13 32v405h-140q-16 0 -27.5 11.5t-11.5 27.5t11.5 27.5t27.5 11.5h140v174q0 18 13 31.5t32 13.5q18 0 31.5 -13.5t13.5 -31.5v-174h139q16 0 27.5 -11.5t11.5 -27.5z" />
    <glyph glyph-name="daggerdbl" unicode="&#x2021;" horiz-adv-x="447" 
d="M447 46q0 -16 -11.5 -27.5t-27.5 -11.5h-139v-174q0 -18 -13.5 -31t-31.5 -13q-19 0 -32 13t-13 31v174h-140q-16 0 -27.5 11.5t-11.5 27.5t11.5 27.5t27.5 11.5h140v357h-140q-16 0 -27.5 11.5t-11.5 27.5t11.5 27.5t27.5 11.5h140v174q0 18 13 31.5t32 13.5
q18 0 31.5 -13.5t13.5 -31.5v-174h139q16 0 27.5 -11.5t11.5 -27.5t-11.5 -27.5t-27.5 -11.5h-139v-357h139q16 0 27.5 -11.5t11.5 -27.5z" />
    <glyph glyph-name="bullet" unicode="&#x2022;" horiz-adv-x="499" 
d="M399 335q0 -71 -50.5 -121.5t-121.5 -50.5t-121.5 50.5t-50.5 121.5t50.5 121.5t121.5 50.5t121.5 -50.5t50.5 -121.5z" />
    <glyph glyph-name="ellipsis" unicode="&#x2026;" horiz-adv-x="764" 
d="M634 -9q-29 0 -49.5 20t-20.5 49t20.5 49.5t49.5 20.5t49 -20.5t20 -49.5q0 -28 -20.5 -48.5t-48.5 -20.5zM382 -9q-29 0 -49.5 20t-20.5 49t20.5 49.5t49.5 20.5t49 -20.5t20 -49.5q0 -28 -20.5 -48.5t-48.5 -20.5zM129 -9q-29 0 -49 20.5t-20 48.5q0 29 20 49.5
t49 20.5t49.5 -20.5t20.5 -49.5t-20.5 -49t-49.5 -20z" />
    <glyph glyph-name="perthousand" unicode="&#x2030;" horiz-adv-x="824" 
d="M768 102q0 -51 -31 -81t-79 -30q-47 0 -78.5 30t-31.5 81v64q0 51 31.5 81t78.5 30q48 0 79 -30t31 -81v-64zM275 563q0 -51 -31 -81t-78 -30q-48 0 -79 30t-31 81v64q0 51 31 81t79 30q47 0 78 -30t31 -81v-64zM437 699l-254 -690q-4 -11 -15 -16t-22 -1t-16 15t-1 23
l253 690q5 11 16 15.5t22 0.5t16 -15t1 -22zM510 102q0 -51 -31 -81t-79 -30q-47 0 -78 30t-31 81v64q0 51 31 81t78 30q48 0 79 -30t31 -81v-64zM710 99v69q0 26 -14 40.5t-38 14.5q-23 0 -37 -14.5t-14 -40.5v-69q0 -26 14 -40.5t37 -14.5q24 0 38 14.5t14 40.5zM217 560
v69q0 26 -14 41t-37 15t-37 -15t-14 -41v-69q0 -26 14 -40.5t37 -14.5t37 14.5t14 40.5zM452 99v69q0 26 -14 40.5t-38 14.5q-22 0 -36 -14.5t-14 -40.5v-69q0 -26 14 -40.5t36 -14.5q24 0 38 14.5t14 40.5z" />
    <glyph glyph-name="guilsinglleft" unicode="&#x2039;" horiz-adv-x="351" 
d="M292 106q11 -12 11 -29.5t-13 -28.5q-12 -12 -28.5 -11.5t-28.5 12.5l-188 195q-12 12 -12 28t12 28l188 194q12 13 28.5 13t28.5 -11q13 -12 13 -29t-11 -30l-161 -165z" />
    <glyph glyph-name="guilsinglright" unicode="&#x203a;" horiz-adv-x="351" 
d="M318 272q0 -14 -12 -28l-188 -195q-12 -12 -29 -12.5t-29 11.5q-12 11 -12.5 28.5t11.5 29.5l160 166l-160 165q-12 13 -11.5 30t12.5 29q12 11 29 11t29 -13l188 -194q12 -14 12 -28z" />
    <glyph glyph-name="fraction" unicode="&#x2044;" horiz-adv-x="398" 
d="M376 684l-280 -666q-7 -16 -22 -22t-31 0q-15 7 -21 22.5t0 30.5l280 667q6 15 21.5 21t30.5 0q16 -7 22 -22t0 -31z" />
    <glyph glyph-name="fraction" unicode="&#x2215;" horiz-adv-x="398" 
d="M376 684l-280 -666q-7 -16 -22 -22t-31 0q-15 7 -21 22.5t0 30.5l280 667q6 15 21.5 21t30.5 0q16 -7 22 -22t0 -31z" />
    <glyph glyph-name="Euro" unicode="&#x20ac;" horiz-adv-x="560" 
d="M529 89q0 -18 -16 -34q-33 -32 -80.5 -48t-93.5 -16q-229 0 -251 260h-30q-14 0 -24 10t-10 24t10 23.5t24 9.5h27v90h-27q-14 0 -24 9.5t-10 23.5t10 24t24 10h30q10 122 72 192.5t183 70.5q107 0 167 -61q17 -19 17 -33q0 -16 -11 -28t-31 -13q-10 0 -38 21
q-41 32 -104 32q-148 0 -165 -181h182q14 0 23.5 -10t9.5 -24q0 -13 -9.5 -23t-23.5 -10h-185v-90h185q14 0 23.5 -10t9.5 -23q0 -14 -9.5 -24t-23.5 -10h-182q8 -91 47 -134.5t114 -43.5q65 0 112 35q28 20 40 20q16 1 27 -11t11 -28z" />
    <glyph glyph-name="trademark" unicode="&#x2122;" horiz-adv-x="690" 
d="M630 388q0 -11 -8 -18.5t-19 -7.5t-18.5 8t-7.5 18v204l-75 -156q-7 -17 -25 -17q-17 0 -26 17l-73 156v-204q0 -11 -8 -18.5t-19 -7.5t-18.5 8t-7.5 18v303q0 12 8 19.5t19 7.5q19 0 27 -17l99 -206l98 206q8 17 27 17q11 0 19 -7.5t8 -19.5v-303zM298 686
q0 -11 -8 -19.5t-19 -8.5h-79v-267q0 -13 -8 -21t-20 -8t-20 8t-8 21v267h-78q-12 0 -20 8.5t-8 19.5t8 19.5t20 8.5h213q11 0 19 -8.5t8 -19.5z" />
    <glyph glyph-name="partialdiff" unicode="&#x2202;" horiz-adv-x="553" 
d="M503 241q0 -120 -65 -185t-164 -65q-100 0 -162 64.5t-62 168.5q0 100 67 157.5t151 57.5q54 0 106 -29q-38 96 -124 178q-35 32 -80 66q-19 15 -19 35q0 19 12.5 32t31.5 13q12 0 26 -8q42 -30 100 -85q182 -179 182 -400zM415 241q0 33 -7 78q-55 43 -129 43
q-55 0 -98 -37.5t-43 -100.5q0 -69 36.5 -110t99.5 -41q62 0 101.5 41.5t39.5 126.5z" />
    <glyph glyph-name="product" unicode="&#x220f;" horiz-adv-x="652" 
d="M570 36q0 -19 -13.5 -32t-31.5 -13q-19 0 -32 13t-13 32v607h-308v-607q0 -19 -12.5 -32t-31.5 -13t-32 13t-13 32v650q0 17 12.5 30t30.5 13h401q18 0 30.5 -13t12.5 -30v-650z" />
    <glyph glyph-name="summation" unicode="&#x2211;" horiz-adv-x="537" 
d="M499 43q0 -18 -12.5 -30.5t-29.5 -12.5h-386q-17 0 -29 10.5t-14 26.5q-4 25 14 43l262 284l-258 285q-19 17 -14 43q2 16 14 26.5t29 10.5h370q17 0 30 -12.5t13 -30.5q0 -17 -13 -29.5t-30 -12.5h-278l226 -249q13 -15 13 -31q0 -17 -13 -30l-228 -248h292
q17 0 29.5 -12.5t12.5 -30.5z" />
    <glyph glyph-name="minus" unicode="&#x2212;" horiz-adv-x="546" 
d="M487 277q0 -17 -12 -29t-29 -12h-346q-17 0 -29 12t-12 29t12.5 29t28.5 12h346q16 0 28.5 -12t12.5 -29z" />
    <glyph glyph-name="radical" unicode="&#x221a;" horiz-adv-x="826" 
d="M773 699l-388 -729q-12 -22 -37 -22q-23 0 -36 19l-133 200h-88q-17 0 -29 12t-12 29t12 29t29 12h107q24 0 38 -19l109 -161l355 669q8 15 24.5 20t31.5 -3t20 -24.5t-3 -31.5z" />
    <glyph glyph-name="infinity" unicode="&#x221e;" horiz-adv-x="786" 
d="M732 288q0 -69 -44 -116.5t-129 -47.5q-57 0 -94.5 30.5t-71.5 86.5q-32 -55 -70.5 -86t-95.5 -31q-85 0 -129 47.5t-44 116.5v57q0 69 44 116.5t129 47.5q57 0 95.5 -31t70.5 -86q34 56 71.5 86.5t94.5 30.5q85 0 129 -47.5t44 -116.5v-57zM659 300v33q0 108 -100 108
q-43 0 -70 -29.5t-57 -95.5q30 -65 57.5 -94.5t69.5 -29.5q100 0 100 108zM354 316q-30 66 -57 95.5t-70 29.5q-100 0 -100 -108v-33q0 -108 100 -108q42 0 69.5 29.5t57.5 94.5z" />
    <glyph glyph-name="integral" unicode="&#x222b;" horiz-adv-x="315" 
d="M338 689q0 -17 -11.5 -28t-28.5 -11h-27q-60 0 -81 -27t-21 -94v-543q0 -98 -41 -149t-140 -51h-36q-16 -1 -28 10.5t-12 28.5t12 28.5t28 11.5h28q59 0 80.5 27t21.5 94v543q0 98 41 149t139 51h36q17 0 28.5 -11.5t11.5 -28.5z" />
    <glyph glyph-name="approxequal" unicode="&#x2248;" horiz-adv-x="550" 
d="M486 409q0 -34 -38 -55.5t-88 -21.5q-39 0 -88 22.5t-75 22.5q-28 0 -51 -15.5t-37 -15.5q-19 0 -32 13.5t-13 31.5q0 34 38.5 56t87.5 22q39 0 88 -23t75 -23q28 0 51 15.5t37 15.5q19 0 32 -13t13 -32zM486 222q0 -34 -38 -55.5t-88 -21.5q-39 0 -88 22.5t-75 22.5
q-28 0 -51 -16t-37 -16q-19 0 -32 13.5t-13 32.5q0 34 38.5 56t87.5 22q39 0 88 -23.5t75 -23.5q28 0 51 16t37 16q19 0 32 -13.5t13 -31.5z" />
    <glyph glyph-name="notequal" unicode="&#x2260;" horiz-adv-x="592" 
d="M509 182q0 -17 -12 -29t-29 -12h-207l-48 -107q-4 -10 -13.5 -13.5t-19.5 0.5q-22 9 -13 33l39 87h-82q-17 0 -29 12t-12 29q0 16 12.5 28.5t28.5 12.5h119l51 116h-170q-16 0 -28.5 12.5t-12.5 28.5q0 17 12 29t29 12h207l48 108q11 22 33 12t13 -33l-39 -87h82
q17 0 29 -12t12 -29t-12 -29t-29 -12h-118l-52 -116h170q17 0 29 -12t12 -29z" />
    <glyph glyph-name="lessequal" unicode="&#x2264;" horiz-adv-x="565" 
d="M492 158q-7 -14 -22 -19t-30 3l-356 184q-21 11 -21 35t21 34l356 184q14 8 29.5 3t22.5 -19q8 -13 3.5 -29t-18.5 -23l-293 -150l293 -151q14 -7 18.5 -22.5t-3.5 -29.5zM500 40q0 -16 -12 -28t-28 -12h-357q-17 0 -28.5 12t-11.5 28t11.5 28t28.5 12h357q16 0 28 -12
t12 -28z" />
    <glyph glyph-name="greaterequal" unicode="&#x2265;" horiz-adv-x="565" 
d="M501 361q0 -24 -20 -35l-357 -184q-14 -8 -29.5 -3t-22.5 19q-8 14 -3 29.5t19 22.5l293 151l-293 150q-14 7 -19 23t3 29q7 14 22.5 19t29.5 -3l357 -184q20 -11 20 -34zM501 40q0 -17 -11.5 -28.5t-28.5 -11.5h-356q-17 0 -28.5 12t-11.5 28t11.5 28t28.5 12h356
q17 0 28.5 -11.5t11.5 -28.5z" />
    <glyph glyph-name="lozenge" unicode="&#x25ca;" horiz-adv-x="572" 
d="M536 364q0 -11 -7 -23l-211 -334q-11 -17 -32 -17t-32 17l-211 334q-7 12 -7 23q0 9 7 23l211 333q10 17 32 17t32 -17l211 -333q7 -14 7 -23zM453 364l-167 266l-167 -266l167 -266z" />
    <glyph glyph-name="apple" horiz-adv-x="542" 
d="M463 396h-51q-41 0 -44 -37q45 -45 45 -120t-44.5 -117.5t-117.5 -42.5q-29 0 -48 5v-42q11 -8 33.5 -16t55.5 -18.5t54 -18.5q46 -17 73 -41.5t27 -65.5q0 -39 -23 -69q-25 -32 -69 -48t-89 -16q-46 0 -89.5 15.5t-64.5 48.5q-15 25 -15 55l45 22q-1 -5 -1 -10
q0 -44 48 -67q32 -16 77 -16q43 0 77 16q48 24 48 69q0 26 -38 46t-83.5 31.5t-83.5 35t-38 54.5q0 27 23 46q-80 39 -80 144q0 73 43.5 116.5t117.5 43.5q45 0 80 -15q2 35 25 50.5t64 10.5l43 -5v-44zM337 -148h-26v38h26v-4h-22v-12h20v-4h-20v-14h22v-4zM296 -122
q0 -5 -4 -8q-3 -3 -8 -3h-11v-15h-4v38h15q12 0 12 -12zM256 -112l-15 -19v-17h-4v17l-15 19l3 2l14 -18l14 18zM213 -114h-13v-34h-4v34h-13v4h30v-4zM357 239q0 51 -27.5 81t-78.5 30q-50 0 -78 -30.5t-28 -80.5q0 -51 27 -81.5t79 -30.5q50 0 78 31t28 81zM292 -122
q0 8 -8 8h-11v-15h11q4 0 6 2t2 5z" />
    <glyph glyph-name="uni021A" horiz-adv-x="573" 
d="M564 685q0 -18 -13 -30.5t-31 -12.5h-189v-606q0 -19 -13 -32t-32 -13q-18 0 -31.5 13t-13.5 32v606h-189q-18 0 -30.5 12.5t-12.5 30.5t12.5 31t30.5 13h468q18 0 31 -13t13 -31zM335 -121q0 -46 -30 -78.5t-49 -32.5q-7 0 -12.5 5t-5.5 12q0 8 16 22t20 35
q-17 4 -27 17t-10 30q0 19 14.5 33t34.5 14q22 0 35.5 -16t13.5 -41z" />
    <glyph glyph-name="uni021B" horiz-adv-x="337" 
d="M326 40q0 -17 -11.5 -28.5t-27.5 -11.5h-30q-98 0 -136 55t-38 162v213h-29q-16 0 -27 11t-11 26q0 16 11 27t27 11h29v103q0 18 12.5 31t31.5 13q18 0 30.5 -13t12.5 -31v-103h93q16 0 27 -11t11 -27q0 -15 -11 -26t-27 -11h-93l1 -212q0 -78 19 -108t76 -30h21
q16 0 27.5 -11.5t11.5 -28.5zM245 -121q0 -46 -30 -78.5t-49 -32.5q-7 0 -12 5t-5 12q0 8 15.5 22t19.5 35q-16 4 -26.5 17t-10.5 30q0 19 14.5 33t34.5 14q22 0 35.5 -16t13.5 -41z" />
    </font>
</defs>
</svg>
